<?xml version="1.0" standalone="no"?>
<!DOCTYPE svg PUBLIC "-//W3C//DTD SVG 1.1//EN" "http://www.w3.org/Graphics/SVG/1.1/DTD/svg11.dtd" >
<svg xmlns="http://www.w3.org/2000/svg">
<metadata>Generated by IcoMoon</metadata>
<defs>
<font id="peakventures" horiz-adv-x="1024">
<font-face units-per-em="1024" ascent="960" descent="-64" />
<missing-glyph horiz-adv-x="1024" />
<glyph unicode="&#x20;" horiz-adv-x="512" d="" />
<glyph unicode="&#xe900;" glyph-name="dashboard-alt" horiz-adv-x="983" d="M409.6 812.147h-245.76c-10.863 0-21.282-4.315-28.963-11.997s-11.997-18.1-11.997-28.963v-245.761c0-10.863 4.316-21.279 11.997-28.963 7.682-7.68 18.1-11.997 28.963-11.997h245.76c10.863 0 21.283 4.317 28.963 11.997 7.68 7.684 11.997 18.1 11.997 28.963v245.761c0 10.863-4.317 21.282-11.997 28.963s-18.1 11.997-28.963 11.997zM819.2 402.546h-245.76c-10.863 0-21.283-4.313-28.963-11.997-7.68-7.68-11.997-18.1-11.997-28.963v-245.76c0-10.863 4.317-21.279 11.997-28.963 7.68-7.68 18.1-11.997 28.963-11.997h245.76c10.863 0 21.283 4.317 28.963 11.997 7.68 7.684 11.997 18.1 11.997 28.963v245.76c0 10.863-4.317 21.283-11.997 28.963-7.68 7.684-18.1 11.997-28.963 11.997zM696.32 812.147c-90.358 0-163.84-73.482-163.84-163.84s73.482-163.841 163.84-163.841c90.358 0 163.84 73.483 163.84 163.841s-73.482 163.84-163.84 163.84zM286.72 402.546c-90.358 0-163.84-73.482-163.84-163.84s73.482-163.84 163.84-163.84c90.358 0 163.84 73.482 163.84 163.84s-73.482 163.84-163.84 163.84z" />
<glyph unicode="&#xe901;" glyph-name="home" horiz-adv-x="983" d="M840.2 536.809l-307.2 279.169c-11.325 10.362-26.12 16.108-41.472 16.108s-30.147-5.747-41.472-16.108l-307.2-279.169c-6.289-5.754-11.313-12.752-14.751-20.555-3.437-7.799-5.214-16.232-5.217-24.756v-353.665c-0.25-15.491 5.219-30.527 15.36-42.242 5.756-6.541 12.846-11.78 20.794-15.356s16.57-5.411 25.286-5.378h184.32c8.147 0 15.962 3.236 21.722 8.999 5.763 5.763 8.998 13.574 8.998 21.721v184.32c0 8.151 3.238 15.962 8.998 21.725 5.765 5.759 13.576 8.995 21.723 8.995h122.88c8.147 0 15.962-3.236 21.721-8.995 5.763-5.763 8.999-13.574 8.999-21.725v-184.32c0-8.147 3.236-15.958 8.999-21.721s13.574-8.999 21.721-8.999h184.32c10.191-0.090 20.234 2.425 29.184 7.295 9.736 5.304 17.871 13.132 23.548 22.655 5.673 9.523 8.679 20.402 8.708 31.49v355.201c-0.004 8.524-1.778 16.957-5.218 24.756-3.437 7.803-8.458 14.8-14.75 20.555z" />
<glyph unicode="&#xe902;" glyph-name="ads" d="M822.548 830.855c17.865-4.769 28.467-23.063 23.68-40.861l-16.346-60.765c-4.787-17.798-23.151-28.36-41.015-23.591s-28.467 23.063-23.68 40.861l16.346 60.765c4.787 17.798 23.147 28.36 41.015 23.591zM637.418 755.404c-30.042 51.838-101.862 59.925-142.763 16.075l-287.94-308.72c10.045-9.079 18.867-19.84 26.012-32.171l111.63-192.619c7.146-12.331 12.092-25.323 14.96-38.528l412.343 94.059c58.569 13.363 87.45 79.369 57.408 131.209l-191.65 330.695zM279.29 208.641l-111.63 192.619c-18.496 31.915-59.459 42.85-91.494 24.422-32.035-18.423-43.011-59.234-24.515-91.149l111.63-192.619c18.495-31.915 59.459-42.846 91.494-24.422 32.035 18.428 43.011 59.234 24.516 91.149zM541.004 12.041l-84.992 146.654 136.619 31.164 64.38-111.091c18.496-31.915 7.522-72.725-24.512-91.149-32.038-18.428-72.998-7.492-91.494 24.422zM895.508 615.991c-17.869 4.769-36.228-5.793-41.015-23.591s5.815-36.092 23.68-40.861l60.996-16.282c17.865-4.769 36.228 5.793 41.015 23.591s-5.815 36.092-23.68 40.861l-60.996 16.282z" />
<glyph unicode="&#xe903;" glyph-name="alerts" d="M512-4.26c226.214 0 409.594 183.379 409.594 409.594 0 226.212-183.379 409.594-409.594 409.594-226.212 0-409.594-183.381-409.594-409.594s183.381-409.594 409.594-409.594zM460.813 608.947c0 28.276 22.923 51.2 51.2 51.2s51.2-22.924 51.2-51.2v-203.85c0-28.277-22.924-51.2-51.2-51.2s-51.2 22.923-51.2 51.2v203.85zM460.813 200.572c0 28.275 22.923 51.2 51.2 51.2s51.2-22.925 51.2-51.2c0-28.275-22.924-51.2-51.2-51.2s-51.2 22.925-51.2 51.2z" />
<glyph unicode="&#xe904;" glyph-name="articles" d="M64 679.62c0 60.593 50.144 109.714 112 109.714h447.999c61.858 0 112-49.121 112-109.714v-548.573c0-60.591 50.146-109.713 112-109.713h-671.999c-61.856 0-112 49.122-112 109.713v548.573zM232 582.096c0 23.564 19.103 42.667 42.667 42.667h250.666c23.565 0 42.667-19.103 42.667-42.667v-134.095c0-23.565-19.102-42.667-42.667-42.667h-250.666c-23.564 0-42.667 19.102-42.667 42.667v134.095zM567.999 252.954c0 23.565-19.102 42.667-42.667 42.667h-250.666c-23.564 0-42.667-19.102-42.667-42.667v-24.384c0-23.561 19.103-42.667 42.667-42.667h250.666c23.565 0 42.667 19.106 42.667 42.667v24.384zM791.999 569.905h56c61.858 0 112-49.121 112-109.715v-301.713c0-45.444-37.606-82.287-83.998-82.287s-84.002 36.843-84.002 82.287v411.428z" />
<glyph unicode="&#xe905;" glyph-name="assets" d="M916.666 629.546l-384.947 197.53c-6.323 3.226-13.427 4.919-20.651 4.919s-14.327-1.692-20.651-4.919l-383.071-195.95c-6.655-3.412-12.204-8.409-16.071-14.474s-5.914-12.977-5.927-20.020c-0.013-7.043 2.007-13.961 5.853-20.038s9.375-11.092 16.017-14.525l384.948-199.109c6.336-3.298 13.483-5.035 20.753-5.039 7.266-0.009 14.417 1.715 20.762 4.996l383.070 197.532c6.656 3.427 12.198 8.439 16.055 14.519s5.884 13.003 5.875 20.053c-0.009 7.050-2.052 13.969-5.926 20.040-3.87 6.071-9.425 11.072-16.090 14.484zM512.024 269.934l-362.24 201.22c-22.884 12.715-51.74 4.467-64.452-18.419-12.711-22.882-4.466-51.738 18.416-64.448l385.236-214.020c7.040-3.913 14.963-5.965 23.014-5.965 8.055 0 15.974 2.052 23.019 5.965l385.233 214.020c22.882 12.71 31.13 41.566 18.419 64.448-12.715 22.886-41.57 31.13-64.452 18.419l-362.193-201.22zM512.024 80.306l-362.24 201.22c-22.884 12.71-51.74 4.463-64.452-18.419s-4.466-51.738 18.416-64.452l385.236-214.020c7.040-3.908 14.963-5.961 23.014-5.961 8.055 0 15.974 2.052 23.019 5.961l385.233 214.020c22.882 12.715 31.13 41.566 18.419 64.452-12.715 22.882-41.57 31.13-64.452 18.415l-362.193-201.216z" />
<glyph unicode="&#xe906;" glyph-name="categories" d="M64 592c0 44.183 35.817 80 80 80h256c44.181 0 80-35.817 80-80v-160c0-44.181-35.819-80-80-80h-256c-44.183 0-80 35.819-80 80v160zM576 698.667c0 44.183 35.819 80 80 80h224c44.181 0 80-35.817 80-80v-522.667c0-44.181-35.819-80-80-80h-224c-44.181 0-80 35.819-80 80v522.667zM128 208c0 44.181 35.817 80 80 80h224c44.181 0 80-35.819 80-80v-96c0-44.181-35.819-80-80-80h-224c-44.183 0-80 35.819-80 80v96z" />
<glyph unicode="&#xe907;" glyph-name="crawler-jobs" d="M848 609.24h-86.878c-21.602 37.834-51.362 70.333-87.36 95.071l44.638 45.11c18.718 18.917 18.718 49.475 0 68.393-18.722 18.917-48.96 18.917-67.678 0l-70.562-71.303c-22.080 5.335-44.638 8.246-68.16 8.246s-46.080-2.91-67.678-8.246l-71.042 71.303c-18.72 18.917-48.96 18.917-67.68 0s-18.72-49.475 0-68.393l44.16-45.11c-35.52-24.738-65.28-57.236-86.88-95.071h-86.88c-26.4 0-48-21.828-48-48.506s21.6-48.506 48-48.506h52.32c-2.4-16.007-4.32-32.014-4.32-48.505v-48.508h-48c-26.4 0-48-21.824-48-48.503s21.6-48.508 48-48.508h48v-48.503c0-16.491 1.92-32.499 4.32-48.508h-52.32c-26.4 0-48-21.824-48-48.503s21.6-48.508 48-48.508h86.88c49.92-86.822 142.56-145.515 249.12-145.515s199.202 58.692 249.122 145.515h86.878c26.398 0 48 21.828 48 48.508s-21.602 48.503-48 48.503h-52.318c2.398 16.009 4.318 32.017 4.318 48.508v48.503h48c26.398 0 48 21.828 48 48.508s-21.602 48.503-48 48.503h-48v48.508c0 16.491-1.92 32.498-4.318 48.505h52.318c26.398 0 48 21.827 48 48.506s-21.602 48.506-48 48.506zM560 221.194h-96c-26.402 0-48 21.828-48 48.508s21.598 48.503 48 48.503h96c26.398 0 48-21.824 48-48.503s-21.602-48.508-48-48.508zM560 415.217h-96c-26.402 0-48 21.828-48 48.508 0 26.675 21.598 48.505 48 48.505h96c26.398 0 48-21.83 48-48.505 0-26.679-21.602-48.508-48-48.508z" />
<glyph unicode="&#xe908;" glyph-name="compliance" d="M810.667 149.334v384c0 94.257-76.412 170.667-170.667 170.667h-384c0 70.692 57.308 128 128 128h426.667c70.694 0 128-57.308 128-128v-426.667c0-70.694-57.306-128-128-128zM213.333-21.333c-70.692 0-128 57.306-128 128v426.667c0 70.692 57.308 128 128 128h426.667c70.694 0 128-57.308 128-128v-426.667c0-70.694-57.306-128-128-128h-426.667zM586.556 398.32c15.654 17.613 14.067 44.582-3.541 60.237-17.613 15.654-44.582 14.067-60.237-3.541l-140.605-158.182-53.336 53.338c-16.663 16.661-43.677 16.661-60.34 0s-16.662-43.678 0-60.339l85.333-85.333c8.309-8.311 19.677-12.826 31.423-12.48s22.83 5.521 30.636 14.302l170.666 192z" />
<glyph unicode="&#xe909;" glyph-name="content" d="M213.333 832.001c-70.692 0-128-57.308-128-128v-128h853.333v128c0 70.692-57.306 128-128 128h-597.333zM170.667 704.001c0 23.564 19.103 42.667 42.667 42.667h85.333c23.564 0 42.667-19.103 42.667-42.667s-19.103-42.667-42.667-42.667h-85.333c-23.564 0-42.667 19.103-42.667 42.667zM938.667 490.667v-384c0-70.694-57.306-128-128-128h-597.333c-70.692 0-128 57.306-128 128v384h853.333zM221.633 372.084c-21.476 0-38.886-17.408-38.886-38.886 0-21.474 17.41-38.886 38.886-38.886h466.623c21.478 0 38.886 17.412 38.886 38.886 0 21.478-17.408 38.886-38.886 38.886h-466.623zM182.747 151.301c0-21.474 17.41-38.882 38.886-38.882h251.186c21.474 0 38.882 17.408 38.882 38.882 0 21.478-17.408 38.886-38.882 38.886h-251.186c-21.476 0-38.886-17.408-38.886-38.886z" />
<glyph unicode="&#xe90a;" glyph-name="arrow-down" d="M512.001 823.467c18.85 0 34.133-15.282 34.133-34.133v-685.594l240.397 240.397c13.329 13.329 34.944 13.329 48.273 0s13.329-34.944 0-48.273l-298.667-298.667c-6.4-6.4-15.083-9.997-24.137-9.997s-17.737 3.597-24.137 9.997l-298.666 298.667c-13.33 13.329-13.33 34.944 0 48.273s34.942 13.329 48.272 0l240.398-240.397v685.594c0 18.851 15.283 34.133 34.133 34.133z" />
<glyph unicode="&#xe90b;" glyph-name="day-parting" d="M307.2 814.934c28.277 0 51.2-22.923 51.2-51.2v-51.2h307.2v51.2c0 28.277 22.925 51.2 51.2 51.2 28.279 0 51.2-22.923 51.2-51.2v-51.2h51.2c56.555 0 102.4-45.846 102.4-102.4v-512c0-56.555-45.845-102.4-102.4-102.4h-614.4c-56.554 0-102.4 45.845-102.4 102.4v512c0 56.554 45.846 102.4 102.4 102.4h51.2v51.2c0 28.277 22.923 51.2 51.2 51.2zM307.2 558.934c-28.277 0-51.2-22.923-51.2-51.2 0-28.275 22.923-51.2 51.2-51.2h409.6c28.279 0 51.2 22.925 51.2 51.2 0 28.277-22.921 51.2-51.2 51.2h-409.6z" />
<glyph unicode="&#xe90c;" glyph-name="documentation" d="M818.326 613.021l-179.418 183.744c-21.884 21.874-52.514 34.999-87.522 34.999h-258.189c-65.641 4.375-122.53-52.498-122.53-118.121v-612.48c0-65.621 52.513-122.496 122.53-122.496h437.606c65.643 0 122.53 52.497 122.53 122.496v428.736c0 30.624-13.129 61.248-35.008 83.122zM380.719 486.149h131.282c17.506 0 35.008-13.124 35.008-34.999 0-21.871-13.129-34.995-35.008-34.995h-131.282c-17.504 0-35.009 13.124-35.009 34.995 0 21.875 17.504 34.999 35.009 34.999zM643.282 241.157h-262.563c-17.504 0-35.009 13.124-35.009 34.999s13.129 34.999 35.009 34.999h262.563c17.506 0 35.008-13.124 35.008-34.999s-17.502-34.999-35.008-34.999z" />
<glyph unicode="&#xe90d;" glyph-name="domains" d="M810.666 874.666c-55.744 0-103.164-35.633-120.725-85.364-23.356-0.091-43.477-0.449-60.685-1.855-23.983-1.96-46.029-6.165-66.739-16.716-32.111-16.363-58.219-42.471-74.581-74.584-10.551-20.707-14.758-42.754-16.717-66.736-1.886-23.091-1.886-51.437-1.886-85.783v-95.629h-135.284c-17.571 49.715-64.984 85.333-120.716 85.333-70.692 0-128-57.306-128-128s57.308-128 128-128c55.732 0 103.145 35.618 120.716 85.333h135.284v-95.629c0-34.347 0-62.69 1.886-85.781 1.958-23.983 6.165-46.029 16.717-66.739 16.363-32.111 42.47-58.219 74.581-74.581 20.71-10.551 42.756-14.758 66.739-16.717 17.207-1.408 37.333-1.762 60.685-1.856 17.562-49.728 64.981-85.363 120.725-85.363 70.694 0 128 57.306 128 128s-57.306 128-128 128c-55.718 0-103.121-35.601-120.704-85.299-22.549 0.094-39.671 0.418-53.76 1.57-18.705 1.527-28.271 4.297-34.944 7.697-16.055 8.179-29.111 21.235-37.291 37.291-3.401 6.673-6.17 16.239-7.697 34.944-1.57 19.204-1.604 44.049-1.604 80.597v93.867h135.283c17.57-49.715 64.986-85.333 120.717-85.333 70.694 0 128 57.306 128 128s-57.306 128-128 128c-55.731 0-103.147-35.619-120.717-85.333h-135.283v93.867c0 36.547 0.034 61.392 1.604 80.596 1.527 18.706 4.297 28.272 7.697 34.945 8.179 16.057 21.235 29.111 37.291 37.292 6.673 3.4 16.239 6.17 34.944 7.699 14.089 1.151 31.211 1.475 53.76 1.567 17.583-49.696 64.986-85.298 120.704-85.298 70.694 0 128 57.308 128 128s-57.306 128-128 128z" />
<glyph unicode="&#xe90e;" glyph-name="facebook" d="M511.999 829.398c-235.604 0-426.622-191.019-426.622-426.624 0-212.907 155.989-389.376 359.977-421.504v298.155h-108.372v123.349h108.372v93.994c0 107.008 63.701 166.016 161.109 166.016 46.677 0 95.573-8.32 95.573-8.32v-104.917h-53.931c-52.907 0-69.461-32.939-69.461-66.688v-80h118.229l-18.901-123.349h-99.328v-298.155c203.989 31.957 359.979 208.469 359.979 421.419 0 235.605-191.019 426.624-426.624 426.624z" />
<glyph unicode="&#xe90f;" glyph-name="jobs" d="M453.332 845.334h117.333c13.175 0 24.738-8.786 28.262-21.482l23.377-84.156c16.619-5.48 32.691-12.162 48.107-19.944l76.058 42.989c11.469 6.484 25.856 4.523 35.174-4.794l82.965-82.967c9.318-9.318 11.277-23.704 4.796-35.175l-42.991-76.057c7.782-15.416 14.468-31.486 19.947-48.107l84.156-23.377c12.698-3.524 21.483-15.087 21.483-28.262v-117.333c0-13.175-8.785-24.738-21.483-28.262l-84.156-23.377c-5.478-16.619-12.16-32.691-19.942-48.107l42.987-76.058c6.485-11.469 4.523-25.856-4.791-35.174l-82.97-82.965c-9.318-9.318-23.706-11.277-35.174-4.796l-76.058 42.991c-15.415-7.782-31.488-14.468-48.107-19.947l-23.377-84.156c-3.524-12.698-15.087-21.483-28.262-21.483h-117.333c-13.175 0-24.738 8.785-28.262 21.483l-23.377 84.156c-16.62 5.478-32.69 12.164-48.108 19.947l-76.054-42.991c-11.471-6.481-25.857-4.518-35.175 4.796l-82.967 82.97c-9.318 9.314-11.279 23.701-4.795 35.174l42.988 76.053c-7.781 15.415-14.464 31.488-19.944 48.107l-84.156 23.377c-12.696 3.524-21.482 15.087-21.482 28.262v117.333c0 13.175 8.786 24.738 21.482 28.262l84.156 23.377c5.48 16.62 12.163 32.69 19.945 48.108l-42.988 76.054c-6.484 11.471-4.523 25.857 4.795 35.175l82.967 82.967c9.318 9.318 23.704 11.279 35.175 4.795l76.055-42.988c15.416 7.781 31.487 14.464 48.105 19.944l23.377 84.156c3.524 12.696 15.087 21.482 28.262 21.482zM761.33 405.334c0 137.702-111.629 249.333-249.331 249.333s-249.333-111.631-249.333-249.333c0-137.702 111.631-249.331 249.333-249.331s249.331 111.629 249.331 249.331zM608.992 454.149c34.833-23.219 34.833-74.402 0-97.626l-115.785-77.193c-38.989-25.988-91.209 1.958-91.209 48.815v154.381c0 46.857 52.221 74.805 91.209 48.815l115.785-77.192z" />
<glyph unicode="&#xe910;" glyph-name="arrow-left" d="M450.804 728.137c13.329-13.33 13.329-34.942 0-48.272l-240.398-240.398h685.595c18.85 0 34.133-15.283 34.133-34.133s-15.283-34.133-34.133-34.133h-685.595l240.398-240.397c13.329-13.329 13.329-34.944 0-48.273s-34.943-13.329-48.273 0l-298.667 298.667c-13.33 13.329-13.33 34.944 0 48.273l298.667 298.666c13.33 13.33 34.944 13.33 48.273 0z" />
<glyph unicode="&#xe911;" glyph-name="arrow-narrow-down" d="M512.001 823.467c18.85 0 34.133-15.282 34.133-34.133v-685.594l112.397 112.397c13.329 13.329 34.944 13.329 48.273 0s13.329-34.944 0-48.273l-170.667-170.667c-6.4-6.4-15.083-9.997-24.137-9.997s-17.737 3.597-24.137 9.997l-170.666 170.667c-13.33 13.329-13.33 34.944 0 48.273s34.942 13.329 48.272 0l112.398-112.397v685.594c0 18.851 15.283 34.133 34.133 34.133z" />
<glyph unicode="&#xe912;" glyph-name="arrow-narrow-left" d="M322.803 600.137c13.33-13.33 13.33-34.942 0-48.272l-112.397-112.398h685.595c18.85 0 34.133-15.283 34.133-34.133s-15.283-34.133-34.133-34.133h-685.595l112.397-112.397c13.33-13.329 13.33-34.944 0-48.273s-34.942-13.329-48.272 0l-170.667 170.667c-13.33 13.329-13.33 34.944 0 48.273l170.667 170.666c13.33 13.33 34.942 13.33 48.272 0z" />
<glyph unicode="&#xe913;" glyph-name="arrow-narrow-right" d="M701.197 600.137c13.329 13.33 34.944 13.33 48.273 0l170.667-170.666c13.329-13.329 13.329-34.944 0-48.273l-170.667-170.667c-13.329-13.329-34.944-13.329-48.273 0s-13.329 34.944 0 48.273l112.397 112.397h-685.594c-18.851 0-34.133 15.283-34.133 34.133s15.282 34.133 34.133 34.133h685.594l-112.397 112.398c-13.329 13.33-13.329 34.942 0 48.272z" />
<glyph unicode="&#xe914;" glyph-name="arrow-narrow-up-right" d="M426.667 627.201c-18.851 0-34.133 15.282-34.133 34.133s15.282 34.133 34.133 34.133h341.333c18.85 0 34.133-15.282 34.133-34.133v-341.333c0-18.85-15.283-34.133-34.133-34.133s-34.133 15.283-34.133 34.133v258.928l-453.731-453.731c-13.33-13.329-34.942-13.329-48.272 0s-13.33 34.944 0 48.273l453.73 453.73h-258.927z" />
<glyph unicode="&#xe915;" glyph-name="arrow-narrow-up" d="M487.863 813.47c13.329 13.33 34.944 13.33 48.273 0l170.667-170.667c13.329-13.33 13.329-34.942 0-48.272s-34.944-13.33-48.273 0l-112.397 112.397v-685.595c0-18.85-15.283-34.133-34.133-34.133s-34.133 15.283-34.133 34.133v685.595l-112.398-112.397c-13.33-13.33-34.942-13.33-48.272 0s-13.33 34.942 0 48.272l170.666 170.667z" />
<glyph unicode="&#xe916;" glyph-name="arrow-right" d="M573.196 728.137c13.329 13.33 34.944 13.33 48.273 0l298.667-298.666c6.4-6.4 9.997-15.083 9.997-24.137s-3.597-17.737-9.997-24.137l-298.667-298.667c-13.329-13.329-34.944-13.329-48.273 0s-13.329 34.944 0 48.273l240.397 240.397h-685.594c-18.851 0-34.133 15.283-34.133 34.133s15.282 34.133 34.133 34.133h685.594l-240.397 240.398c-13.329 13.33-13.329 34.942 0 48.272z" />
<glyph unicode="&#xe917;" glyph-name="arrow-up" d="M487.863 813.47c13.329 13.33 34.944 13.33 48.273 0l298.667-298.667c13.329-13.33 13.329-34.944 0-48.273s-34.944-13.329-48.273 0l-240.397 240.398v-685.595c0-18.85-15.283-34.133-34.133-34.133s-34.133 15.283-34.133 34.133v685.595l-240.398-240.398c-13.33-13.329-34.942-13.329-48.272 0s-13.33 34.943 0 48.273l298.666 298.667z" />
<glyph unicode="&#xe918;" glyph-name="calendar" d="M341.334 823.467c18.851 0 34.133-15.282 34.133-34.133v-51.2h273.067v51.2c0 18.851 15.283 34.133 34.133 34.133s34.133-15.282 34.133-34.133v-51.2h93.867c65.98 0 119.467-53.487 119.467-119.467v-512c0-65.98-53.487-119.467-119.467-119.467h-597.333c-65.98 0-119.467 53.487-119.467 119.467v512c0 65.98 53.487 119.467 119.467 119.467h93.867v51.2c0 18.851 15.282 34.133 34.133 34.133zM307.201 669.867h-93.867c-28.277 0-51.2-22.923-51.2-51.2v-512c0-28.275 22.923-51.2 51.2-51.2h597.333c28.275 0 51.2 22.925 51.2 51.2v512c0 28.277-22.925 51.2-51.2 51.2h-93.867v-51.2c0-18.851-15.283-34.133-34.133-34.133s-34.133 15.282-34.133 34.133v51.2h-273.067v-51.2c0-18.851-15.282-34.133-34.133-34.133s-34.133 15.282-34.133 34.133v51.2zM264.534 448c0 18.85 15.282 34.133 34.133 34.133h426.667c18.85 0 34.133-15.283 34.133-34.133s-15.283-34.133-34.133-34.133h-426.667c-18.851 0-34.133 15.283-34.133 34.133z" />
<glyph unicode="&#xe919;" glyph-name="checkmark" d="M429.577 159.198c-6.722-6.327-15.889-9.865-25.414-9.865s-18.692 3.537-25.414 9.865l-202.95 190.123c-21.064 19.729-21.064 51.712 0 71.407l25.414 23.804c21.064 19.729 55.177 19.729 76.241 0l126.709-118.677 342.385 320.683c21.065 19.729 55.211 19.729 76.241 0l25.412-23.803c21.065-19.729 21.065-51.713 0-71.409l-418.624-392.127z" />
<glyph unicode="&#xe91a;" glyph-name="chevron-down" d="M189.206 557.462c13.33 13.33 34.942 13.33 48.272 0l274.531-274.53 274.53 274.53c13.329 13.33 34.944 13.33 48.273 0s13.329-34.942 0-48.272l-298.667-298.668c-13.329-13.329-34.944-13.329-48.273 0l-298.666 298.668c-13.33 13.33-13.33 34.942 0 48.272z" />
<glyph unicode="&#xe91b;" glyph-name="chevron-left" d="M664.128 728.128c13.329-13.33 13.329-34.942 0-48.272l-274.531-274.531 274.531-274.53c13.329-13.329 13.329-34.944 0-48.273s-34.944-13.329-48.273 0l-298.666 298.667c-13.33 13.329-13.33 34.944 0 48.273l298.666 298.666c13.329 13.33 34.944 13.33 48.273 0z" />
<glyph unicode="&#xe91c;" glyph-name="chevron-right" d="M359.872 82.539c-13.33 13.329-13.33 34.944 0 48.273l274.53 274.53-274.53 274.531c-13.33 13.33-13.33 34.942 0 48.272s34.942 13.33 48.272 0l298.668-298.666c13.329-13.329 13.329-34.944 0-48.273l-298.668-298.667c-13.33-13.329-34.942-13.329-48.272 0z" />
<glyph unicode="&#xe91d;" glyph-name="chevron-up" d="M834.795 253.206c-13.329-13.329-34.944-13.329-48.273 0l-274.53 274.531-274.531-274.531c-13.33-13.329-34.942-13.329-48.272 0s-13.33 34.944 0 48.273l298.666 298.666c13.329 13.33 34.944 13.33 48.273 0l298.667-298.666c13.329-13.329 13.329-34.944 0-48.273z" />
<glyph unicode="&#xe91e;" glyph-name="close" d="M231.864 685.47c13.33 13.33 34.942 13.33 48.272 0l231.864-231.863 231.863 231.863c13.329 13.33 34.944 13.33 48.273 0s13.329-34.942 0-48.272l-231.863-231.864 231.863-231.863c13.329-13.329 13.329-34.944 0-48.273s-34.944-13.329-48.273 0l-231.863 231.863-231.864-231.863c-13.33-13.329-34.942-13.329-48.272 0s-13.33 34.944 0 48.273l231.863 231.863-231.863 231.864c-13.33 13.33-13.33 34.942 0 48.272z" />
<glyph unicode="&#xe91f;" glyph-name="crop" d="M255.999 866.133c18.851 0 34.133-15.282 34.133-34.133v-170.601c0-0.022 0-0.044 0-0.065s0-0.044 0-0.065v-375.402c0-24.457 0.027-40.751 1.050-53.265 0.99-12.122 2.741-17.664 4.531-21.18 4.908-9.634 12.741-17.468 22.375-22.374 3.513-1.792 9.058-3.541 21.177-4.531 12.517-1.024 28.808-1.050 53.267-1.050h375.407c0.017 0 0.038 0 0.060 0s0.038 0 0.060 0h170.607c18.85 0 34.133-15.283 34.133-34.133s-15.283-34.133-34.133-34.133h-136.533v-136.533c0-18.85-15.283-34.133-34.133-34.133s-34.133 15.283-34.133 34.133v136.533h-342.708c-22.727 0-41.824 0-57.452 1.276-16.34 1.335-31.869 4.237-46.61 11.746-22.479 11.452-40.755 29.73-52.209 52.207-7.511 14.741-10.41 30.272-11.745 46.613-1.277 15.629-1.277 34.726-1.276 57.455v342.703h-136.533c-18.851 0-34.133 15.282-34.133 34.133s15.282 34.133 34.133 34.133h136.533v136.533c0 18.851 15.282 34.133 34.133 34.133zM684.731 626.151c-12.514 1.023-28.809 1.050-53.265 1.050h-204.8c-18.851 0-34.133 15.282-34.133 34.133s15.282 34.133 34.133 34.133h206.17c22.729 0 41.826 0.001 57.455-1.276 16.341-1.335 31.872-4.234 46.613-11.745 22.477-11.453 40.755-29.73 52.207-52.209 7.509-14.741 10.411-30.27 11.746-46.61 1.276-15.628 1.276-34.726 1.276-57.452v-206.174c0-18.85-15.283-34.133-34.133-34.133s-34.133 15.283-34.133 34.133v204.8c0 24.459-0.026 40.75-1.050 53.267-0.99 12.119-2.739 17.664-4.531 21.177-4.907 9.634-12.74 17.467-22.374 22.375-3.516 1.79-9.058 3.541-21.18 4.531z" />
<glyph unicode="&#xe920;" glyph-name="dots-horizontal" d="M128 405.334c0 47.13 38.205 85.333 85.333 85.333s85.333-38.204 85.333-85.333c0-47.13-38.205-85.333-85.333-85.333s-85.333 38.204-85.333 85.333zM426.667 405.334c0 47.13 38.204 85.333 85.333 85.333s85.333-38.204 85.333-85.333c0-47.13-38.204-85.333-85.333-85.333s-85.333 38.204-85.333 85.333zM725.333 405.334c0 47.13 38.204 85.333 85.333 85.333s85.333-38.204 85.333-85.333c0-47.13-38.204-85.333-85.333-85.333s-85.333 38.204-85.333 85.333z" />
<glyph unicode="&#xe921;" glyph-name="dots-vertical" d="M426.667 704.001c0 47.128 38.204 85.333 85.333 85.333s85.333-38.205 85.333-85.333c0-47.128-38.204-85.333-85.333-85.333s-85.333 38.205-85.333 85.333zM426.667 405.334c0 47.13 38.204 85.333 85.333 85.333s85.333-38.204 85.333-85.333c0-47.13-38.204-85.333-85.333-85.333s-85.333 38.204-85.333 85.333zM426.667 106.667c0 47.13 38.204 85.333 85.333 85.333s85.333-38.204 85.333-85.333c0-47.13-38.204-85.333-85.333-85.333s-85.333 38.204-85.333 85.333z" />
<glyph unicode="&#xe922;" glyph-name="drag-n-drop" d="M384 716.191c30.297 0 54.857 24.56 54.857 54.857s-24.56 54.857-54.857 54.857c-30.297 0-54.857-24.56-54.857-54.857s24.56-54.857 54.857-54.857zM384 472.384c30.297 0 54.857 24.558 54.857 54.857 0 30.296-24.56 54.856-54.857 54.856s-54.857-24.56-54.857-54.856c0-30.299 24.56-54.857 54.857-54.857zM438.857 283.427c0-30.296-24.56-54.857-54.857-54.857s-54.857 24.561-54.857 54.857c0 30.299 24.56 54.857 54.857 54.857s54.857-24.558 54.857-54.857zM384-15.237c30.297 0 54.857 24.561 54.857 54.857s-24.56 54.857-54.857 54.857c-30.297 0-54.857-24.561-54.857-54.857s24.56-54.857 54.857-54.857zM694.857 771.048c0-30.297-24.561-54.857-54.857-54.857-30.297 0-54.857 24.56-54.857 54.857s24.56 54.857 54.857 54.857c30.296 0 54.857-24.56 54.857-54.857zM640 472.384c30.296 0 54.857 24.558 54.857 54.857 0 30.296-24.561 54.856-54.857 54.856-30.297 0-54.857-24.56-54.857-54.856 0-30.299 24.56-54.857 54.857-54.857zM694.857 283.427c0-30.296-24.561-54.857-54.857-54.857-30.297 0-54.857 24.561-54.857 54.857 0 30.299 24.56 54.857 54.857 54.857s54.857-24.558 54.857-54.857zM640-15.237c30.296 0 54.857 24.561 54.857 54.857s-24.561 54.857-54.857 54.857c-30.297 0-54.857-24.561-54.857-54.857s24.56-54.857 54.857-54.857z" />
<glyph unicode="&#xe923;" glyph-name="edit-square" d="M733.644 789.756c44.949 44.949 117.828 44.949 162.778 0s44.949-117.827 0-162.777l-364.996-364.995c-0.721-0.721-1.434-1.434-2.138-2.138-11.093-11.115-20.437-20.467-31.671-27.354-9.886-6.059-20.659-10.522-31.932-13.227-12.813-3.076-26.035-3.068-41.739-3.055-0.997 0-2.004 0-3.022 0h-63.915c-18.851 0-34.133 15.283-34.133 34.133v63.915c0 1.020 0 2.027-0.001 3.025-0.012 15.701-0.023 28.924 3.054 41.737 2.706 11.273 7.17 22.046 13.227 31.932 6.886 11.234 16.241 20.578 27.354 31.671 0.706 0.708 1.418 1.417 2.138 2.138l364.997 364.995zM848.149 741.484c-18.291 18.29-47.945 18.29-66.236 0l-364.994-364.996c-14.352-14.349-17.438-17.749-19.558-21.205-2.314-3.776-4.019-7.893-5.053-12.198-0.947-3.942-1.166-8.529-1.166-28.826v-29.781h29.782c20.296 0 24.882 0.222 28.825 1.169 4.305 1.033 8.422 2.739 12.198 5.052 3.456 2.121 6.857 5.205 21.205 19.558l364.996 364.994c18.291 18.29 18.291 47.944 0 66.234zM309.777 742.501h161.74c18.85 0 34.133-15.282 34.133-34.133s-15.283-34.133-34.133-34.133h-160.309c-32.628 0-55.046-0.027-72.428-1.447-16.983-1.388-26.131-3.933-32.764-7.313-15.123-7.706-27.418-20.001-35.124-35.124-3.38-6.633-5.926-15.781-7.313-32.764-1.42-17.382-1.446-39.799-1.446-72.428v-320.613c0-32.631 0.026-55.049 1.446-72.431 1.388-16.981 3.934-26.129 7.313-32.764 7.706-15.121 20.001-27.418 35.124-35.123 6.633-3.379 15.781-5.926 32.764-7.313 17.382-1.421 39.8-1.446 72.428-1.446h320.617c32.627 0 55.044 0.026 72.427 1.446 16.981 1.387 26.129 3.934 32.764 7.313 15.121 7.706 27.418 20.002 35.123 35.123 3.379 6.635 5.926 15.782 7.313 32.764 1.421 17.382 1.446 39.799 1.446 72.431v160.307c0 18.85 15.283 34.133 34.133 34.133s34.133-15.283 34.133-34.133v-161.741c0-30.848 0-56.064-1.673-76.557-1.732-21.201-5.427-40.333-14.528-58.197-14.251-27.968-36.988-50.705-64.956-64.956-17.86-9.101-36.992-12.796-58.197-14.528-20.493-1.673-45.709-1.673-76.557-1.673h-323.476c-30.849 0-56.066 0-76.556 1.673-21.205 1.732-40.337 5.427-58.197 14.528-27.968 14.251-50.707 36.988-64.957 64.956-9.101 17.865-12.795 36.996-14.527 58.197-1.674 20.493-1.674 45.709-1.673 76.557v323.478c0 30.849-0.001 56.065 1.673 76.556 1.732 21.205 5.426 40.337 14.527 58.197 14.25 27.968 36.989 50.707 64.957 64.957 17.861 9.101 36.992 12.795 58.197 14.528 20.491 1.674 45.707 1.674 76.556 1.673z" />
<glyph unicode="&#xe924;" glyph-name="edit" d="M887.222 780.553c57.216-57.219 57.216-149.99 0-207.209l-526.59-526.589c-9.879-9.89-18.068-18.091-27.77-24.486-8.545-5.636-17.813-10.091-27.551-13.244-11.057-3.58-22.574-4.851-36.469-6.387l-137.073-15.228c-10.306-1.148-20.573 2.458-27.905 9.788s-10.934 17.6-9.789 27.904l15.229 137.071c1.535 13.897 2.807 25.417 6.387 36.471 3.152 9.737 7.607 19.008 13.242 27.55 6.398 9.702 14.596 17.89 24.488 27.772l410.314 410.313c1.169 1.699 2.509 3.316 4.019 4.826s3.127 2.85 4.826 4.018l107.43 107.43c57.22 57.219 149.99 57.219 207.211 0zM592.297 596.294l-388.755-388.753c-12.656-12.655-15.523-15.753-17.617-18.927-2.249-3.409-4.026-7.108-5.284-10.995-1.171-3.618-1.797-7.791-3.773-25.579l-10.23-92.070 92.069 10.231c17.789 1.975 21.961 2.603 25.58 3.772 3.886 1.259 7.585 3.038 10.995 5.286 3.175 2.095 6.27 4.962 18.926 17.617l388.755 388.753-110.665 110.665zM751.231 533.901l87.718 87.716c30.558 30.559 30.558 80.106 0 110.665s-80.107 30.56-110.665 0l-87.718-87.716 110.665-110.665z" />
<glyph unicode="&#xe925;" glyph-name="exclamation-circle" d="M512-4.26c226.214 0 409.594 183.379 409.594 409.594 0 226.212-183.379 409.594-409.594 409.594-226.212 0-409.594-183.381-409.594-409.594s183.381-409.594 409.594-409.594zM460.813 608.947c0 28.276 22.923 51.2 51.2 51.2s51.2-22.924 51.2-51.2v-203.85c0-28.277-22.924-51.2-51.2-51.2s-51.2 22.923-51.2 51.2v203.85zM460.813 200.572c0 28.275 22.923 51.2 51.2 51.2s51.2-22.925 51.2-51.2c0-28.275-22.924-51.2-51.2-51.2s-51.2 22.925-51.2 51.2z" />
<glyph unicode="&#xe926;" glyph-name="expand" d="M331.349 823.467h95.317c18.85 0 34.133-15.282 34.133-34.133s-15.283-34.133-34.133-34.133h-93.867c-36.407 0-61.659-0.026-81.291-1.63-19.234-1.571-30.048-4.485-38.124-8.6-17.662-8.999-32.022-23.359-41.021-41.021-4.115-8.076-7.029-18.89-8.6-38.124-1.604-19.632-1.63-44.884-1.63-81.291v-93.867c0-18.85-15.282-34.133-34.133-34.133s-34.133 15.283-34.133 34.133v95.317c0 34.612-0.001 62.659 1.857 85.399 1.916 23.455 5.978 44.253 15.814 63.558 15.544 30.507 40.348 55.311 70.855 70.855 19.304 9.836 40.102 13.898 63.558 15.814 22.74 1.858 50.787 1.858 85.399 1.857zM640 755.2c-18.85 0-34.133 15.282-34.133 34.133s15.283 34.133 34.133 34.133h256c18.85 0 34.133-15.282 34.133-34.133v-256c0-18.851-15.283-34.133-34.133-34.133s-34.133 15.282-34.133 34.133v173.595l-197.73-197.731c-13.329-13.33-34.944-13.33-48.273 0s-13.329 34.942 0 48.272l197.73 197.731h-173.594zM896 354.133c18.85 0 34.133-15.283 34.133-34.133v-95.322c0-34.611 0-62.656-1.856-85.393-1.916-23.458-5.978-44.254-15.817-63.561-15.543-30.507-40.346-55.309-70.852-70.852-19.307-9.839-40.102-13.901-63.561-15.817-22.737-1.856-50.782-1.856-85.393-1.856h-95.322c-18.85 0-34.133 15.283-34.133 34.133s15.283 34.133 34.133 34.133h93.867c36.407 0 61.658 0.026 81.289 1.63 19.234 1.57 30.050 4.484 38.127 8.602 17.66 8.998 32.021 23.36 41.020 41.020 4.117 8.077 7.031 18.893 8.602 38.127 1.604 19.631 1.63 44.881 1.63 81.289v93.867c0 18.85 15.283 34.133 34.133 34.133zM128 311.467c18.851 0 34.133-15.283 34.133-34.133v-173.594l197.731 197.73c13.33 13.329 34.942 13.329 48.272 0s13.33-34.944 0-48.273l-197.731-197.73h173.595c18.851 0 34.133-15.283 34.133-34.133s-15.282-34.133-34.133-34.133h-256c-9.053 0-17.735 3.597-24.136 9.997s-9.997 15.083-9.997 24.137v256c0 18.85 15.282 34.133 34.133 34.133z" />
<glyph unicode="&#xe927;" glyph-name="image" d="M288.681 823.468h446.633c34.615 0 62.66 0 85.402-1.857 23.454-1.917 44.254-5.978 63.556-15.814 30.507-15.544 55.313-40.347 70.857-70.855 9.835-19.304 13.897-40.102 15.812-63.557 1.86-22.739 1.86-50.785 1.86-85.396v-361.307c0-34.611 0-62.656-1.86-85.397-1.916-23.454-5.978-44.254-15.812-63.556-15.543-30.507-40.35-55.313-70.857-70.857-19.302-9.835-40.102-13.897-63.556-15.812-22.741-1.86-50.786-1.86-85.397-1.86h-446.64c-34.61 0-62.656 0-85.396 1.86-23.455 1.916-44.253 5.978-63.557 15.812-30.508 15.543-55.311 40.35-70.855 70.857-9.836 19.302-13.898 40.102-15.814 63.556-1.858 22.741-1.858 50.786-1.857 85.402v361.299c0 34.612 0 62.659 1.857 85.399 1.917 23.455 5.978 44.253 15.814 63.557 15.544 30.508 40.347 55.311 70.855 70.855 19.304 9.836 40.102 13.898 63.557 15.814 22.74 1.858 50.787 1.858 85.399 1.857zM208.841 753.571c-19.233-1.571-30.047-4.485-38.124-8.6-17.662-8.999-32.022-23.359-41.021-41.021-4.115-8.077-7.029-18.891-8.6-38.124-1.604-19.632-1.631-44.884-1.631-81.291v-358.402c0-36.403 0.026-61.658 1.631-81.289 1.571-19.234 4.485-30.046 8.6-38.123 8.556-16.794 21.955-30.601 38.432-39.65l272.291 272.286c7.735 7.74 14.925 14.929 21.444 20.463 7.057 5.99 15.539 12.019 26.402 15.548 15.424 5.013 32.043 5.013 47.467 0 10.863-3.529 19.345-9.557 26.402-15.548 6.519-5.534 13.709-12.723 21.444-20.463l272.29-272.286c16.478 9.050 29.875 22.857 38.434 39.65 4.113 8.077 7.027 18.889 8.597 38.123 1.604 19.631 1.634 44.885 1.634 81.289v358.402c0 36.407-0.030 61.658-1.634 81.291-1.57 19.233-4.484 30.047-8.597 38.124-9.003 17.662-23.36 32.022-41.024 41.021-8.077 4.115-18.889 7.029-38.123 8.6-19.631 1.604-44.885 1.631-81.289 1.631h-443.735c-36.407 0-61.658-0.026-81.291-1.631zM770.829 55.564l-234.697 234.697c-8.845 8.845-14.046 14.012-18.18 17.519-2.091 1.775-3.221 2.513-3.635 2.761-1.515 0.427-3.123 0.427-4.638 0-0.414-0.247-1.545-0.986-3.635-2.761-4.134-3.507-9.335-8.674-18.18-17.519l-234.697-234.697c10.915-0.094 23.135-0.098 36.965-0.098h443.735c13.828 0 26.048 0.004 36.962 0.098zM509.862 310.643l-0.043-0.021zM341.331 584.535c-28.277 0-51.2-22.923-51.2-51.2s22.923-51.202 51.2-51.202c28.277 0 51.2 22.925 51.2 51.202s-22.923 51.2-51.2 51.2zM221.865 533.335c0 65.98 53.487 119.467 119.467 119.467s119.469-53.487 119.469-119.467c0-65.978-53.489-119.469-119.469-119.469s-119.467 53.491-119.467 119.469zM779.819 438.997c-0.414-0.247-1.545-0.99-3.635-2.765-4.134-3.507-9.335-8.67-18.185-17.519l-140.86-140.86c-13.329-13.329-34.944-13.329-48.273 0s-13.329 34.94 0 48.273l141.692 141.687c7.735 7.735 14.925 14.929 21.444 20.463 7.057 5.99 15.539 12.017 26.402 15.547 15.424 5.012 32.038 5.012 47.467 0 10.863-3.53 19.345-9.557 26.402-15.547 6.519-5.534 13.709-12.727 21.444-20.463l109.082-109.082c13.333-13.333 13.333-34.944 0-48.273-13.329-13.329-34.94-13.329-48.269 0l-108.258 108.254c-8.845 8.849-14.050 14.012-18.18 17.519-2.091 1.775-3.221 2.517-3.635 2.765-1.519 0.427-3.123 0.427-4.638 0z" />
<glyph unicode="&#xe928;" glyph-name="log-out" d="M331.35 823.467h52.651c18.851 0 34.133-15.282 34.133-34.133s-15.282-34.133-34.133-34.133h-51.2c-36.407 0-61.659-0.026-81.291-1.63-19.234-1.571-30.048-4.485-38.124-8.6-17.662-8.999-32.022-23.359-41.021-41.021-4.115-8.076-7.029-18.89-8.6-38.124-1.604-19.632-1.63-44.884-1.63-81.291v-358.4c0-36.407 0.026-61.658 1.63-81.289 1.571-19.234 4.485-30.050 8.6-38.127 8.999-17.66 23.359-32.021 41.021-41.020 8.076-4.117 18.89-7.031 38.124-8.602 19.632-1.604 44.884-1.63 81.291-1.63h51.2c18.851 0 34.133-15.283 34.133-34.133s-15.282-34.133-34.133-34.133h-52.654c-34.611 0-62.657 0-85.396 1.856-23.455 1.916-44.253 5.978-63.558 15.817-30.507 15.543-55.311 40.346-70.855 70.852-9.836 19.307-13.898 40.102-15.814 63.561-1.858 22.737-1.858 50.786-1.857 85.397v361.301c0 34.612-0.001 62.659 1.857 85.399 1.916 23.455 5.978 44.253 15.814 63.558 15.544 30.508 40.348 55.311 70.855 70.855 19.304 9.836 40.102 13.898 63.558 15.814 22.74 1.858 50.787 1.858 85.399 1.857zM658.531 642.803c13.329 13.33 34.944 13.33 48.273 0l213.333-213.333c13.329-13.329 13.329-34.944 0-48.273l-213.333-213.333c-13.329-13.329-34.944-13.329-48.273 0s-13.329 34.944 0 48.273l155.063 155.063h-429.594c-18.851 0-34.133 15.283-34.133 34.133s15.282 34.133 34.133 34.133h429.594l-155.063 155.064c-13.329 13.33-13.329 34.942 0 48.272z" />
<glyph unicode="&#xe929;" glyph-name="plus" d="M512 780.8c18.85 0 34.133-15.282 34.133-34.133v-307.2h307.2c18.85 0 34.133-15.283 34.133-34.133s-15.283-34.133-34.133-34.133h-307.2v-307.2c0-18.85-15.283-34.133-34.133-34.133s-34.133 15.283-34.133 34.133v307.2h-307.2c-18.851 0-34.133 15.283-34.133 34.133s15.282 34.133 34.133 34.133h307.2v307.2c0 18.851 15.283 34.133 34.133 34.133z" />
<glyph unicode="&#xe92a;" glyph-name="refresh" d="M445.197 873.204c13.329 13.33 34.944 13.33 48.273 0l85.333-85.333c13.329-13.33 13.329-34.942 0-48.272l-85.333-85.333c-13.329-13.33-34.944-13.33-48.273 0s-13.329 34.942 0 48.272l29.201 29.203c-163.735-18.656-290.931-157.676-290.931-326.405 0-109.184 53.228-205.935 135.299-265.728 15.236-11.102 18.589-32.452 7.488-47.689s-32.451-18.59-47.688-7.488c-98.949 72.090-163.367 188.975-163.367 320.905 0 205.019 155.487 373.723 354.974 394.621l-24.977 24.976c-13.329 13.33-13.329 34.942 0 48.272zM697.746 718.75c11.102 15.236 32.452 18.589 47.689 7.488 98.948-72.091 163.366-188.977 163.366-320.904 0-205.022-155.486-373.722-354.974-394.624l24.977-24.973c13.329-13.329 13.329-34.944 0-48.273s-34.944-13.329-48.273 0l-85.333 85.333c-13.329 13.329-13.329 34.944 0 48.273l85.333 85.333c13.329 13.329 34.944 13.329 48.273 0s13.329-34.944 0-48.273l-29.205-29.201c163.738 18.654 290.935 157.675 290.935 326.404 0 109.184-53.227 205.934-135.3 265.728-15.236 11.101-18.59 32.451-7.488 47.687z" />
<glyph unicode="&#xe92b;" glyph-name="search" d="M600.598 634.65c87.791-87.788 87.791-230.121 0-317.908-87.787-87.787-230.119-87.787-317.907 0s-87.788 230.12 0 317.908c87.788 87.788 230.12 87.788 317.907 0zM671.578 293.946c91.162 115.034 83.593 282.677-22.707 388.977-114.449 114.447-300.004 114.447-414.452 0s-114.448-300.004 0-414.453c106.295-106.295 273.929-113.865 388.963-22.716 0.431-0.482 0.879-0.96 1.344-1.421l192.422-192.427c13.329-13.329 34.944-13.329 48.273 0s13.329 34.944 0 48.273l-192.422 192.422c-0.465 0.465-0.939 0.913-1.421 1.344z" />
<glyph unicode="&#xe92c;" glyph-name="selector" d="M512 738.134c9.054 0 17.737-3.596 24.137-9.997l170.667-170.667c13.329-13.33 13.329-34.942 0-48.272s-34.944-13.33-48.273 0l-146.53 146.531-146.531-146.531c-13.33-13.33-34.942-13.33-48.272 0s-13.33 34.942 0 48.272l170.666 170.667c6.4 6.401 15.083 9.997 24.137 9.997zM317.197 301.471c13.33 13.329 34.942 13.329 48.272 0l146.531-146.53 146.53 146.53c13.329 13.329 34.944 13.329 48.273 0s13.329-34.944 0-48.273l-170.667-170.667c-13.329-13.329-34.944-13.329-48.273 0l-170.666 170.667c-13.33 13.329-13.33 34.944 0 48.273z" />
<glyph unicode="&#xe92d;" glyph-name="trash" d="M497.832 812.801h28.339c22.729 0.001 41.826 0.001 57.455-1.276 16.341-1.335 31.872-4.234 46.613-11.745 22.477-11.453 40.755-29.73 52.207-52.209 7.509-14.741 10.411-30.27 11.746-46.61 0.883-10.818 1.156-23.298 1.237-37.493h157.905c18.85 0 34.133-15.282 34.133-34.133s-15.283-34.133-34.133-34.133h-51.2v-359.851c0-34.611 0-62.66-1.856-85.397-1.916-23.458-5.978-44.254-15.817-63.561-15.543-30.507-40.346-55.309-70.852-70.852-19.307-9.839-40.102-13.901-63.561-15.817-22.737-1.856-50.782-1.856-85.393-1.856h-105.31c-34.61 0-62.656 0-85.395 1.856-23.455 1.916-44.253 5.978-63.558 15.817-30.507 15.543-55.311 40.346-70.855 70.852-9.836 19.307-13.898 40.102-15.814 63.561-1.858 22.737-1.857 50.786-1.857 85.397v359.851h-51.2c-18.851 0-34.133 15.282-34.133 34.133s15.282 34.133 34.133 34.133h157.903c0.083 14.196 0.355 26.676 1.239 37.493 1.335 16.34 4.234 31.869 11.745 46.61 11.453 22.479 29.73 40.755 52.209 52.209 14.741 7.511 30.27 10.41 46.612 11.745 15.629 1.277 34.726 1.277 57.455 1.276zM396.842 663.468h230.316c-0.081 13.277-0.316 23.469-1.007 31.934-0.99 12.119-2.739 17.664-4.531 21.177-4.907 9.634-12.74 17.466-22.374 22.375-3.516 1.79-9.058 3.541-21.18 4.531-12.514 1.023-28.809 1.049-53.265 1.049h-25.6c-24.461 0-40.751-0.026-53.269-1.049-12.117-0.99-17.664-2.741-21.175-4.531-9.634-4.909-17.466-12.741-22.375-22.375-1.79-3.513-3.541-9.058-4.531-21.177-0.692-8.465-0.928-18.657-1.008-31.934zM290.135 595.201v-358.4c0-36.407 0.026-61.658 1.63-81.289 1.571-19.234 4.485-30.050 8.6-38.127 8.999-17.66 23.359-32.021 41.021-41.020 8.076-4.117 18.89-7.031 38.124-8.602 19.632-1.604 44.884-1.63 81.291-1.63h102.4c36.407 0 61.658 0.026 81.289 1.63 19.234 1.57 30.050 4.484 38.127 8.602 17.66 8.998 32.021 23.36 41.020 41.020 4.117 8.077 7.027 18.893 8.602 38.127 1.604 19.631 1.63 44.881 1.63 81.289v358.4h-443.733z" />
<glyph unicode="&#xe92e;" glyph-name="launches" d="M258.9 871.766c-117.821 0-213.333-95.512-213.333-213.333v-203.636h346.49v198.1l297.076-247.563-297.076-247.561v197.999h-346.49v-203.537c0-117.82 95.513-213.333 213.333-213.333h506.2c117.82 0 213.333 95.514 213.333 213.333v506.198c0 117.821-95.514 213.333-213.333 213.333h-506.2z" />
<glyph unicode="&#xe92f;" glyph-name="attachment" d="M532.941 715.356l-273.822-281.145c-86.644-86.643-86.647-227.119-0.002-313.766 86.644-86.643 227.121-86.643 313.769 0l267.008 266.381c13.346 13.316 34.957 13.291 48.269-0.055 13.316-13.346 13.291-34.957-0.055-48.273l-266.953-266.321c-0.004-0.004 0.004 0 0 0-113.306-113.293-297.009-113.301-410.31 0-113.249 113.246-113.304 296.828-0.164 410.146l273.834 281.158c79.979 79.98 209.655 79.977 289.634-0.002 79.923-79.924 79.979-209.473 0.166-289.467l-273.839-281.161c-46.652-46.652-122.297-46.652-168.951 0.004-46.655 46.652-46.655 122.295 0 168.951l280.994 280.993c13.329 13.329 34.94 13.329 48.273 0 13.329-13.33 13.329-34.942 0-48.272l-280.995-280.994c-19.995-19.994-19.995-52.412 0-72.405 19.948-19.951 52.264-19.998 72.266-0.141l273.813 281.135c53.321 53.32 53.321 139.765 0 193.085-53.269 53.27-139.605 53.32-192.934 0.15z" />
<glyph unicode="&#xe930;" glyph-name="bold" d="M221.875 746.659c0 18.851 15.282 34.133 34.133 34.133h341.333c113.109 0 204.8-91.692 204.8-204.8 0-62.956-28.407-119.279-73.101-156.847 68.51-33.122 115.767-103.287 115.767-184.486 0-113.109-91.691-204.8-204.8-204.8h-384c-18.851 0-34.133 15.283-34.133 34.133v682.667zM290.142 371.192v-273.067h349.867c75.405 0 136.533 61.129 136.533 136.533s-61.129 136.533-136.533 136.533h-349.867zM290.142 439.459h307.2c75.405 0 136.533 61.128 136.533 136.533s-61.129 136.533-136.533 136.533h-307.2v-273.067z" />
<glyph unicode="&#xe931;" glyph-name="code" d="M365.469 685.47c13.33-13.33 13.33-34.942 0-48.272l-231.864-231.864 231.864-231.863c13.33-13.329 13.33-34.944 0-48.273s-34.942-13.329-48.272 0l-256 256c-13.33 13.329-13.33 34.944 0 48.273l256 256c13.33 13.33 34.942 13.33 48.272 0zM658.53 685.47c13.329 13.33 34.944 13.33 48.273 0l256-256c13.329-13.329 13.329-34.944 0-48.273l-256-256c-13.329-13.329-34.944-13.329-48.273 0s-13.329 34.944 0 48.273l231.863 231.863-231.863 231.864c-13.329 13.33-13.329 34.942 0 48.272z" />
<glyph unicode="&#xe932;" glyph-name="dash" d="M179.201 405.334c0 18.85 15.282 34.133 34.133 34.133h597.333c18.85 0 34.133-15.283 34.133-34.133s-15.283-34.133-34.133-34.133h-597.333c-18.851 0-34.133 15.283-34.133 34.133z" />
<glyph unicode="&#xe933;" glyph-name="ai" d="M603.672 617.89c6.694 26.379 44.169 26.379 50.867 0l25.596-100.866c18.074-71.21 72.055-127.786 142.34-149.179l67.618-20.582c24.798-7.548 24.798-42.654 0-50.202l-67.618-20.582c-70.285-21.393-124.267-77.969-142.34-149.18l-25.596-100.864c-6.699-26.381-44.173-26.381-50.867 0l-25.6 100.864c-18.069 71.211-72.055 127.787-142.336 149.18l-67.621 20.582c-24.798 7.548-24.798 42.654 0 50.202l67.621 20.582c70.281 21.393 124.267 77.969 142.336 149.179l25.6 100.866zM255.865 793.078c3.702 14.589 24.428 14.589 28.13 0l14.157-55.782c9.994-39.38 39.849-70.67 78.717-82.5l37.396-11.382c13.714-4.174 13.714-23.59 0-27.764l-37.396-11.382c-38.868-11.83-68.723-43.119-78.717-82.499l-14.157-55.782c-3.702-14.588-24.428-14.588-28.13 0l-14.157 55.782c-9.994 39.38-39.849 70.669-78.717 82.499l-37.396 11.382c-13.714 4.174-13.714 23.59 0 27.764l37.396 11.382c38.868 11.83 68.723 43.12 78.717 82.5l14.157 55.782z" />
<glyph unicode="&#xe934;" glyph-name="italic" d="M639.214 780.8h-212.548c-18.851 0-34.133-15.282-34.133-34.133s15.282-34.133 34.133-34.133h164.079l-230.4-614.399h-147.012c-18.851 0-34.133-15.283-34.133-34.133 0-18.854 15.282-34.133 34.133-34.133h169.868c0.53-0.013 1.059-0.013 1.587 0h212.545c18.85 0 34.133 15.279 34.133 34.133 0 18.85-15.283 34.133-34.133 34.133h-164.079l230.4 614.399h147.012c18.85 0 34.133 15.282 34.133 34.133s-15.283 34.133-34.133 34.133h-169.869c-0.529 0.012-1.058 0.012-1.583 0z" />
<glyph unicode="&#xe935;" glyph-name="link" d="M518.036 761.339c96.64 96.642 253.329 96.642 349.969 0s96.64-253.329 0-349.969l-60.339-60.343c-13.329-13.329-34.944-13.329-48.273 0-13.329 13.333-13.329 34.944 0 48.273l60.339 60.339c69.982 69.983 69.982 183.447 0 253.428s-183.445 69.982-253.427 0l-60.339-60.34c-13.329-13.33-34.94-13.33-48.269 0-13.333 13.329-13.333 34.942 0 48.272l60.339 60.34zM685.468 578.804c13.333-13.33 13.333-34.942 0-48.272l-298.665-298.666c-13.33-13.329-34.942-13.329-48.272 0s-13.33 34.94 0 48.269l298.668 298.669c13.329 13.33 34.94 13.33 48.269 0zM264.607 459.639c13.33-13.329 13.33-34.94 0-48.269l-60.34-60.343c-69.982-69.982-69.982-183.441 0-253.427 69.982-69.982 183.445-69.982 253.429 0l60.339 60.343c13.329 13.329 34.94 13.329 48.269 0 13.333-13.333 13.333-34.944 0-48.273l-60.339-60.339c-96.64-96.644-253.328-96.644-349.969 0-96.642 96.64-96.642 253.329 0 349.969l60.34 60.339c13.33 13.333 34.942 13.333 48.272 0z" />
<glyph unicode="&#xe936;" glyph-name="list" d="M170.667 669.868c-4.713 0-8.533-3.82-8.533-8.533s3.82-8.533 8.533-8.533c4.713 0 8.533 3.821 8.533 8.533s-3.821 8.533-8.533 8.533zM93.867 661.334c0 42.416 34.384 76.8 76.8 76.8s76.8-34.384 76.8-76.8c0-42.415-34.385-76.8-76.8-76.8s-76.8 34.385-76.8 76.8zM349.867 661.334c0 18.851 15.282 34.133 34.133 34.133h512c18.85 0 34.133-15.282 34.133-34.133s-15.283-34.133-34.133-34.133h-512c-18.851 0-34.133 15.282-34.133 34.133zM170.667 413.868c-4.713 0-8.533-3.819-8.533-8.533s3.82-8.533 8.533-8.533c4.713 0 8.533 3.819 8.533 8.533s-3.821 8.533-8.533 8.533zM93.867 405.334c0 42.415 34.384 76.8 76.8 76.8s76.8-34.385 76.8-76.8c0-42.415-34.385-76.8-76.8-76.8s-76.8 34.385-76.8 76.8zM349.867 405.334c0 18.85 15.282 34.133 34.133 34.133h512c18.85 0 34.133-15.283 34.133-34.133s-15.283-34.133-34.133-34.133h-512c-18.851 0-34.133 15.283-34.133 34.133zM170.667 157.868c-4.713 0-8.533-3.819-8.533-8.533s3.82-8.533 8.533-8.533c4.713 0 8.533 3.819 8.533 8.533s-3.821 8.533-8.533 8.533zM93.867 149.334c0 42.415 34.384 76.8 76.8 76.8s76.8-34.385 76.8-76.8c0-42.415-34.385-76.8-76.8-76.8s-76.8 34.385-76.8 76.8zM349.867 149.334c0 18.85 15.282 34.133 34.133 34.133h512c18.85 0 34.133-15.283 34.133-34.133s-15.283-34.133-34.133-34.133h-512c-18.851 0-34.133 15.283-34.133 34.133z" />
<glyph unicode="&#xe937;" glyph-name="ordered-list" d="M158.344 646.589c-5.070-2.7-10.644-3.854-16.261-3.854-9.529 0-17.903 3.753-24.497 10.347-6.726 6.726-10.347 15.257-10.347 24.829 0 12.954 6.722 23.055 17.021 29.738l47.579 31.72c3.686 2.552 7.745 4.378 12.085 5.463l0.263 0.066c3.753 0.866 7.55 1.376 11.323 1.376 9.691 0 18.925-3.125 25.974-10.497 6.701-6.781 9.866-15.391 9.866-24.679v-191.811c0-9.883-3.81-18.659-10.968-25.443-7.223-6.822-16.337-9.732-25.868-9.732-9.468 0-18.396 2.991-25.519 9.715l-0.31 0.294c-6.849 6.848-10.343 15.548-10.343 25.166v127.303zM123.741 287.063c0.002 0.004 0.003 0.004 0.004 0.004l-0.004-0.004zM159.033 325.522c8.575 2.842 17.184 4.352 25.765 4.352 16.78 0 32.136-3.375 45.544-10.726 13.559-7.087 24.175-17.429 31.551-30.788 7.436-13.248 10.846-28.463 10.846-45.099 0-15.091-4.503-30.95-12.429-47.292-7.787-16.294-18.299-31.462-31.403-45.521l-18.454-19.682h33.747c9.004 0 17.31-3.162 23.833-9.685s9.684-14.831 9.684-23.834c0-8.973-3.292-17.109-9.683-23.501l-0.341-0.341c-6.579-6.165-14.779-9.011-23.493-9.011h-112.83c-9.048 0-17.836 2.923-24.5 10.031-6.28 6.699-9.017 15.066-9.017 23.821 0 9.527 3.579 18.005 10.031 24.832l0.035 0.038 72.222 77.193c7.363 7.966 12.934 15.91 16.853 23.748l0.126 0.252c4.288 8.188 5.598 13.794 5.598 17.297 0 8.004-2.223 12.851-5.427 16.166l-0.17 0.175c-3.21 3.435-7.564 5.559-14.646 5.559-1.789 0-4.020-0.414-6.814-1.673-2.964-1.335-6.069-3.273-9.299-5.973-3.136-2.803-6.191-6.118-9.146-9.993-3.498-4.655-8.406-9.545-15.15-11.793-3.793-1.267-7.845-2.095-12.023-2.095-8.842 0-16.698 3.324-23.225 8.819-0.217 0.183-0.428 0.371-0.634 0.567-6.557 6.191-10.653 14.289-10.653 23.799 0 7.198 2.385 13.747 6.278 19.409l0.359 0.499c3.153 4.207 6.846 8.388 11.011 12.553 6.384 6.383 13.509 11.977 21.339 16.772 7.825 4.8 16.001 8.525 24.515 11.123zM366.78 692.889c0 18.851 15.282 34.133 34.133 34.133h493.421c18.854 0 34.133-15.282 34.133-34.133s-15.279-34.133-34.133-34.133h-493.421c-18.851 0-34.133 15.282-34.133 34.133zM366.78 416.68c0 18.85 15.282 34.133 34.133 34.133h493.421c18.854 0 34.133-15.283 34.133-34.133s-15.279-34.133-34.133-34.133h-493.421c-18.851 0-34.133 15.283-34.133 34.133zM400.914 174.606c-18.851 0-34.133-15.283-34.133-34.133s15.282-34.133 34.133-34.133h493.421c18.854 0 34.133 15.283 34.133 34.133s-15.279 34.133-34.133 34.133h-493.421z" />
<glyph unicode="&#xe938;" glyph-name="smile" d="M511.999 755.201c193.225 0 349.867-156.64 349.867-349.867 0-193.225-156.642-349.867-349.867-349.867s-349.867 156.642-349.867 349.867c0 193.226 156.641 349.867 349.867 349.867zM930.133 405.334c0 230.929-187.204 418.133-418.133 418.133s-418.133-187.204-418.133-418.133c0-230.929 187.204-418.133 418.133-418.133s418.133 187.204 418.133 418.133zM674.133 490.668c0 18.851-15.283 34.133-34.133 34.133h-0.427c-18.85 0-34.133-15.282-34.133-34.133s15.283-34.133 34.133-34.133h0.427c18.85 0 34.133 15.283 34.133 34.133zM418.133 490.668c0 18.851-15.282 34.133-34.133 34.133h-0.427c-18.851 0-34.133-15.282-34.133-34.133s15.282-34.133 34.133-34.133h0.427c18.851 0 34.133 15.283 34.133 34.133zM656.814 308.793c-13.329 13.329-34.94 13.329-48.273 0-53.316-53.321-139.767-53.321-193.085 0-13.33 13.329-34.942 13.329-48.272 0-13.33-13.333-13.33-34.944 0-48.273 79.979-79.979 209.652-79.979 289.63 0 13.329 13.329 13.329 34.94 0 48.273z" />
<glyph unicode="&#xe939;" glyph-name="table" d="M331.349 823.467c-34.612 0-62.659 0.001-85.399-1.857-23.455-1.916-44.253-5.978-63.558-15.814-30.507-15.544-55.311-40.348-70.855-70.855-9.836-19.304-13.898-40.102-15.814-63.558-1.858-22.74-1.858-50.787-1.857-85.399v-361.301c0-34.611-0.001-62.66 1.857-85.397 1.916-23.458 5.978-44.254 15.814-63.561 15.544-30.507 40.348-55.309 70.855-70.852 19.304-9.839 40.102-13.901 63.558-15.817 22.739-1.856 50.785-1.856 85.396-1.856h361.309c34.611 0 62.656 0 85.393 1.856 23.458 1.916 44.254 5.978 63.561 15.817 30.507 15.543 55.309 40.346 70.852 70.852 9.839 19.307 13.901 40.102 15.817 63.561 1.856 22.737 1.856 50.782 1.856 85.393v361.309c0 34.611 0 62.657-1.856 85.396-1.916 23.455-5.978 44.253-15.817 63.558-15.543 30.507-40.346 55.311-70.852 70.855-19.307 9.836-40.102 13.898-63.561 15.814-22.737 1.858-50.786 1.858-85.397 1.857h-361.301zM162.133 371.2h315.733v-315.733h-145.067c-36.407 0-61.659 0.026-81.291 1.63-19.234 1.57-30.048 4.484-38.124 8.602-17.662 8.998-32.022 23.36-41.021 41.020-4.115 8.077-7.029 18.893-8.6 38.127-1.604 19.631-1.63 44.881-1.63 81.289v145.067zM477.866 439.467h-315.733v145.067c0 36.407 0.026 61.659 1.63 81.291 1.571 19.234 4.485 30.048 8.6 38.124 8.999 17.662 23.359 32.022 41.021 41.021 8.076 4.115 18.89 7.029 38.124 8.6 19.632 1.604 44.884 1.63 81.291 1.63h145.067v-315.733zM546.133 371.2h315.733v-145.067c0-36.407-0.026-61.658-1.63-81.289-1.57-19.234-4.484-30.050-8.602-38.127-8.998-17.66-23.36-32.021-41.020-41.020-8.077-4.117-18.893-7.031-38.127-8.602-19.631-1.604-44.881-1.63-81.289-1.63h-145.067v315.733zM861.866 439.467h-315.733v315.733h145.067c36.407 0 61.658-0.026 81.289-1.63 19.234-1.571 30.050-4.485 38.127-8.6 17.66-8.999 32.021-23.359 41.020-41.021 4.117-8.076 7.031-18.89 8.602-38.124 1.604-19.632 1.63-44.884 1.63-81.291v-145.067z" />
<glyph unicode="&#xe93a;" glyph-name="text" d="M132.474 34.705c-18.851 0-34.133 15.279-34.133 34.133v672.991c0 18.851 15.282 34.133 34.133 34.133s34.133-15.282 34.133-34.133v-672.991c0-18.854-15.282-34.133-34.133-34.133zM362.745 727.887c-18.851 0-34.133-15.282-34.133-34.133s15.282-34.133 34.133-34.133h384.566c18.854 0 34.133 15.282 34.133 34.133s-15.279 34.133-34.133 34.133h-384.566zM362.745 439.471c-18.851 0-34.133-15.283-34.133-34.133 0-18.854 15.282-34.133 34.133-34.133h528.78c18.85 0 34.133 15.279 34.133 34.133 0 18.85-15.283 34.133-34.133 34.133h-528.78zM362.745 151.053c-18.851 0-34.133-15.283-34.133-34.133s15.282-34.133 34.133-34.133h384.566c18.854 0 34.133 15.283 34.133 34.133s-15.279 34.133-34.133 34.133h-384.566z" />
<glyph unicode="&#xe93b;" glyph-name="underline" d="M256.001 802.134c18.851 0 34.133-15.282 34.133-34.133v-298.667c0-122.534 99.333-221.867 221.867-221.867s221.867 99.332 221.867 221.867v298.667c0 18.851 15.283 34.133 34.133 34.133s34.133-15.282 34.133-34.133v-298.667c0-160.235-129.899-290.133-290.133-290.133-160.236 0-290.133 129.899-290.133 290.133v298.667c0 18.851 15.282 34.133 34.133 34.133zM136.534 42.667c0 18.85 15.282 34.133 34.133 34.133h682.667c18.85 0 34.133-15.283 34.133-34.133s-15.283-34.133-34.133-34.133h-682.667c-18.851 0-34.133 15.283-34.133 34.133z" />
<glyph unicode="&#xe93c;" glyph-name="video" d="M331.358 823.459h361.301c34.611 0 62.66 0.001 85.397-1.857 23.458-1.916 44.254-5.978 63.561-15.814 30.507-15.544 55.309-40.348 70.852-70.855 9.839-19.304 13.901-40.102 15.817-63.558 1.856-22.739 1.856-50.785 1.856-85.396v-361.309c0-34.611 0-62.656-1.856-85.393-1.916-23.458-5.978-44.254-15.817-63.561-15.543-30.507-40.346-55.309-70.852-70.852-19.307-9.839-40.102-13.901-63.561-15.817-22.737-1.856-50.782-1.856-85.393-1.856h-361.309c-34.611 0-62.657 0-85.396 1.856-23.455 1.916-44.253 5.978-63.558 15.817-30.507 15.543-55.311 40.346-70.855 70.852-9.836 19.307-13.898 40.102-15.814 63.561-1.858 22.737-1.858 50.786-1.857 85.397v361.301c0 34.612-0.001 62.659 1.857 85.399 1.916 23.455 5.978 44.253 15.814 63.558 15.544 30.507 40.348 55.311 70.855 70.855 19.304 9.836 40.102 13.898 63.558 15.814 22.74 1.858 50.787 1.858 85.399 1.857zM251.518 753.562c-19.234-1.571-30.048-4.485-38.124-8.6-17.662-8.999-32.022-23.359-41.021-41.021-4.115-8.076-7.029-18.89-8.6-38.124-1.604-19.632-1.63-44.884-1.63-81.291v-358.4c0-36.407 0.026-61.658 1.63-81.289 1.571-19.234 4.485-30.050 8.6-38.127 8.999-17.66 23.359-32.021 41.021-41.020 8.076-4.117 18.89-7.031 38.124-8.602 19.632-1.604 44.884-1.63 81.291-1.63h358.4c36.407 0 61.658 0.026 81.289 1.63 19.234 1.57 30.050 4.484 38.127 8.602 17.66 8.998 32.021 23.36 41.020 41.020 4.117 8.077 7.031 18.893 8.602 38.127 1.604 19.631 1.63 44.881 1.63 81.289v358.4c0 36.407-0.026 61.659-1.63 81.291-1.57 19.234-4.484 30.048-8.602 38.124-8.998 17.662-23.36 32.022-41.020 41.021-8.077 4.115-18.893 7.029-38.127 8.6-19.631 1.604-44.881 1.63-81.289 1.63h-358.4c-36.407 0-61.659-0.026-81.291-1.63zM475.332 592.91l203.456-130.791c6.566-4.224 13.299-8.55 18.59-12.676 5.568-4.339 13.585-11.435 18.274-22.528 5.828-13.803 5.828-29.376 0-43.179-4.689-11.093-12.706-18.185-18.274-22.528-5.291-4.126-12.023-8.452-18.59-12.676l-203.456-130.79c-7.642-4.911-15.215-9.783-21.798-13.21-6.618-3.447-17.54-8.405-30.81-7.458-16.048 1.148-30.808 9.207-40.45 22.084-7.972 10.65-9.709 22.519-10.39 29.952-0.678 7.39-0.676 16.397-0.675 25.476v260.218c0 0.42 0 0.84 0 1.26-0.001 9.081-0.003 18.087 0.675 25.477 0.681 7.433 2.418 19.302 10.39 29.95 9.642 12.879 24.402 20.937 40.45 22.084 13.27 0.948 24.193-4.010 30.81-7.456 6.583-3.426 14.161-8.297 21.798-13.21zM640.887 405.325l-201.412 129.479v-258.96l201.412 129.481z" />
<glyph unicode="&#xe93d;" glyph-name="copy" d="M563.201 832c0 18.851 15.283 34.133 34.133 34.133h85.333c18.85 0 34.133-15.282 34.133-34.133s-15.283-34.133-34.133-34.133h-85.333c-18.85 0-34.133 15.282-34.133 34.133zM482.13 832.344c0.256-18.85-14.818-34.337-33.668-34.593-29.443-0.399-39.053-2.415-45.039-5.464-9.634-4.909-17.466-12.741-22.375-22.375-3.050-5.985-5.065-15.596-5.464-45.040-0.256-18.849-15.743-33.923-34.593-33.667s-33.923 15.743-33.667 34.593c0.381 28.16 1.701 53.131 12.899 75.107 11.453 22.479 29.73 40.755 52.209 52.209 21.977 11.198 46.948 12.517 75.11 12.899 18.846 0.255 34.334-14.818 34.59-33.668zM797.871 832.344c0.256 18.85 15.744 33.923 34.59 33.668 28.16-0.382 53.133-1.701 75.11-12.899 22.477-11.453 40.755-29.73 52.207-52.209 11.2-21.976 12.518-46.947 12.898-75.107 0.256-18.85-14.818-34.337-33.668-34.593-18.846-0.256-34.334 14.818-34.59 33.668-0.401 29.444-2.415 39.054-5.466 45.039-4.907 9.634-12.74 17.466-22.374 22.375-5.986 3.050-15.595 5.065-45.039 5.464-18.85 0.256-33.924 15.743-33.668 34.593zM938.667 610.134c18.85 0 34.133-15.282 34.133-34.133v-85.334c0-18.85-15.283-34.133-34.133-34.133s-34.133 15.283-34.133 34.133v85.334c0 18.851 15.283 34.133 34.133 34.133zM220.497 610.134h327.006c22.729 0 41.826 0.001 57.455-1.276 16.341-1.335 31.872-4.234 46.613-11.745 22.477-11.453 40.755-29.73 52.207-52.209 7.509-14.741 10.411-30.27 11.746-46.61 1.276-15.631 1.276-34.729 1.276-57.457v-327.006c0-22.729 0-41.826-1.276-57.455-1.335-16.341-4.237-31.872-11.746-46.613-11.452-22.477-29.73-40.755-52.207-52.207-14.741-7.509-30.272-10.411-46.613-11.746-15.625-1.276-34.722-1.276-57.451-1.276h-327.014c-22.727 0-41.824 0-57.453 1.276-16.34 1.335-31.869 4.237-46.61 11.746-22.479 11.452-40.755 29.73-52.209 52.207-7.511 14.741-10.41 30.272-11.745 46.613-1.277 15.629-1.277 34.726-1.276 57.455v327.006c-0.001 22.729-0.001 41.826 1.276 57.457 1.335 16.34 4.234 31.869 11.745 46.61 11.453 22.479 29.73 40.755 52.209 52.209 14.741 7.511 30.27 10.41 46.61 11.745 15.629 1.277 34.728 1.277 57.457 1.276zM168.6 540.818c-12.119-0.99-17.664-2.741-21.177-4.531-9.634-4.909-17.466-12.741-22.375-22.375-1.79-3.513-3.541-9.058-4.531-21.177-1.023-12.517-1.049-28.807-1.049-53.268v-324.267c0-24.457 0.026-40.751 1.049-53.265 0.99-12.122 2.741-17.664 4.531-21.18 4.909-9.634 12.741-17.468 22.375-22.374 3.513-1.792 9.058-3.541 21.177-4.531 12.517-1.024 28.808-1.050 53.267-1.050h324.267c24.461 0 40.751 0.026 53.265 1.050 12.122 0.99 17.664 2.739 21.18 4.531 9.634 4.907 17.468 12.74 22.374 22.374 1.792 3.516 3.541 9.058 4.531 21.18 1.024 12.514 1.050 28.809 1.050 53.265v324.267c0 24.461-0.026 40.751-1.050 53.268-0.99 12.119-2.739 17.664-4.531 21.177-4.907 9.634-12.74 17.466-22.374 22.375-3.516 1.79-9.058 3.541-21.18 4.531-12.514 1.023-28.809 1.049-53.265 1.049h-324.267c-24.459 0-40.75-0.026-53.267-1.049zM939.009 375.463c18.85-0.252 33.924-15.74 33.668-34.59-0.38-28.16-1.698-53.133-12.898-75.11-11.452-22.477-29.73-40.755-52.207-52.207-21.978-11.2-46.95-12.518-75.11-12.898-18.846-0.256-34.334 14.818-34.59 33.668-0.256 18.846 14.818 34.334 33.668 34.59 29.444 0.401 39.053 2.415 45.039 5.466 9.634 4.907 17.468 12.74 22.374 22.374 3.051 5.986 5.065 15.595 5.466 45.043 0.256 18.846 15.744 33.92 34.59 33.664z" />
<glyph unicode="&#xe93e;" glyph-name="share" d="M331.35 823.467h95.317c18.85 0 34.133-15.282 34.133-34.133s-15.283-34.133-34.133-34.133h-93.867c-36.407 0-61.659-0.026-81.291-1.63-19.234-1.571-30.048-4.485-38.124-8.6-17.662-8.999-32.022-23.359-41.021-41.021-4.115-8.076-7.029-18.89-8.6-38.124-1.604-19.632-1.63-44.884-1.63-81.291v-358.4c0-36.407 0.026-61.658 1.63-81.289 1.571-19.234 4.485-30.050 8.6-38.127 8.999-17.66 23.359-32.021 41.021-41.020 8.076-4.117 18.89-7.031 38.124-8.602 19.632-1.604 44.884-1.63 81.291-1.63h358.4c36.407 0 61.658 0.026 81.289 1.63 19.234 1.57 30.050 4.484 38.127 8.602 17.66 8.998 32.021 23.36 41.020 41.020 4.117 8.077 7.031 18.893 8.602 38.127 1.604 19.631 1.63 44.881 1.63 81.289v93.867c0 18.85 15.283 34.133 34.133 34.133s34.133-15.283 34.133-34.133v-95.322c0-34.611 0-62.656-1.856-85.393-1.916-23.458-5.978-44.254-15.817-63.561-15.543-30.507-40.346-55.309-70.852-70.852-19.307-9.839-40.102-13.901-63.561-15.817-22.737-1.856-50.782-1.856-85.393-1.856h-361.309c-34.611 0-62.657 0-85.396 1.856-23.455 1.916-44.253 5.978-63.558 15.817-30.507 15.543-55.311 40.346-70.855 70.852-9.836 19.307-13.898 40.102-15.814 63.561-1.858 22.737-1.858 50.786-1.857 85.397v361.301c0 34.612-0.001 62.659 1.857 85.399 1.916 23.455 5.978 44.253 15.814 63.558 15.544 30.507 40.348 55.311 70.855 70.855 19.304 9.836 40.102 13.898 63.558 15.814 22.74 1.858 50.787 1.858 85.399 1.857zM605.867 789.333c0 18.851 15.279 34.133 34.133 34.133h256c18.85 0 34.133-15.282 34.133-34.133v-256c0-18.851-15.283-34.134-34.133-34.134-18.854 0-34.133 15.282-34.133 34.133v173.595l-325.73-325.731c-13.329-13.329-34.944-13.329-48.273 0s-13.329 34.944 0 48.273l325.73 325.73h-173.594c-18.854 0-34.133 15.282-34.133 34.133z" />
<glyph unicode="&#xe93f;" glyph-name="close-bold" d="M264.215 771.066c-16.245 15.858-42.586 15.858-58.831 0l-58.83-57.431c-16.246-15.859-16.246-41.572 0-57.432l249.182-249.182-249.629-249.629c-15.698-16.258-15.644-42.476 0.16-58.667l57.431-58.829c15.858-16.247 41.57-16.247 57.43-0.009l250.87 250.871 250.87-250.871c15.86-16.239 41.572-16.239 57.43 0.009l57.428 58.829c15.812 16.19 15.863 42.409 0.162 58.667l-249.627 249.629 249.184 249.182c16.247 15.86 16.247 41.573 0 57.432l-58.831 57.431c-16.245 15.858-42.586 15.858-58.831 0l-247.783-247.783-247.783 247.783z" />
<glyph unicode="&#xe940;" glyph-name="chevron-down-small" d="M177.121 569.546c19.995 19.995 52.413 19.995 72.407 0l262.463-262.461 262.464 262.461c19.994 19.995 52.412 19.995 72.405 0 19.998-19.995 19.998-52.413 0-72.407l-298.667-298.665c-19.994-19.998-52.412-19.998-72.405 0l-298.668 298.665c-19.995 19.995-19.995 52.413 0 72.407z" />
<glyph unicode="&#xe941;" glyph-name="chevron-up-small" d="M846.868 219.799c-19.994-19.998-52.412-19.998-72.405 0l-262.464 262.462-262.463-262.462c-19.995-19.998-52.413-19.998-72.407 0-19.995 19.994-19.995 52.412 0 72.405l298.668 298.668c19.994 19.995 52.412 19.995 72.405 0l298.667-298.668c19.998-19.994 19.998-52.412 0-72.405z" />
<glyph unicode="&#xe942;" glyph-name="desktop" d="M263.161 780.802h497.676c22.729 0 41.826 0.001 57.455-1.276 16.341-1.335 31.868-4.235 46.609-11.745 22.481-11.454 40.755-29.73 52.211-52.209 7.509-14.741 10.411-30.27 11.742-46.611 1.28-15.628 1.28-34.725 1.276-57.452v-350.707c19.541-9.694 34.283-27.392 40.051-48.922 2.667-9.958 2.645-21.047 2.62-31.322 0-0.934-0.004-1.86-0.004-2.778 0-1.455 0.004-2.893 0.004-4.309 0.017-22.195 0.030-39.748-4.075-55.057-11.046-41.225-43.247-73.429-84.476-84.476-15.309-4.1-32.858-4.087-55.053-4.070-1.417 0-2.854 0-4.309 0h-625.779c-1.455 0-2.892 0-4.308 0-22.196-0.017-39.747-0.030-55.056 4.070-41.227 11.046-73.429 43.251-84.475 84.476-4.102 15.309-4.089 32.862-4.073 55.057 0.001 1.417 0.002 2.854 0.002 4.309v14.221c0 30.153 17.379 56.252 42.667 68.817v350.687c0 22.729-0.001 41.827 1.276 57.455 1.335 16.34 4.235 31.87 11.745 46.611 11.453 22.479 29.73 40.755 52.209 52.209 14.741 7.511 30.27 10.41 46.611 11.745 15.628 1.277 34.727 1.276 57.455 1.276zM162.131 268.802h193.59c0.689 0 1.385 0 2.087 0.004 8.282 0.013 17.455 0.034 26.446-2.125 7.836-1.882 15.328-4.988 22.199-9.195 7.883-4.834 14.358-11.332 20.202-17.199 0.494-0.499 0.985-0.99 1.475-1.476l2.675-2.679c3.9-3.9 6.037-6.025 7.714-7.552 0.845-0.777 1.28-1.118 1.425-1.229 0.747-0.448 1.557-0.777 2.402-0.981-0.367 0.090-0.154-0.034 1.801-0.124 2.266-0.102 5.278-0.111 10.795-0.111h114.112c5.517 0 8.529 0.009 10.795 0.111 1.148 0.051 1.694 0.115 1.877 0.145 0.841 0.209 1.647 0.546 2.389 1.003-0.32-0.196-0.081-0.132 1.361 1.186 1.677 1.527 3.814 3.652 7.714 7.552l2.675 2.679c0.491 0.486 0.981 0.977 1.476 1.476 5.845 5.867 12.318 12.365 20.203 17.199 6.869 4.207 14.362 7.313 22.199 9.195 8.99 2.159 18.163 2.138 26.445 2.125 0.7-0.004 1.395-0.004 2.086-0.004h193.587v341.333c0 24.459-0.026 40.75-1.045 53.267-0.99 12.119-2.743 17.664-4.531 21.177-4.911 9.634-12.745 17.466-22.379 22.375-3.511 1.79-9.058 3.541-21.175 4.531-12.518 1.023-28.809 1.049-53.269 1.049h-494.931c-24.459 0-40.75-0.026-53.267-1.049-12.119-0.99-17.664-2.741-21.177-4.531-9.634-4.909-17.466-12.741-22.375-22.375-1.79-3.513-3.541-9.059-4.531-21.177-1.023-12.517-1.049-28.808-1.049-53.267v-341.333zM668.275 200.535c-5.517 0-8.529-0.009-10.795-0.111-1.148-0.051-1.694-0.115-1.877-0.145-0.845-0.209-1.651-0.546-2.389-1.003 0.32 0.196 0.081 0.132-1.361-1.186-1.677-1.527-3.814-3.652-7.714-7.552l-2.675-2.679c-0.491-0.486-0.981-0.977-1.476-1.476-5.845-5.867-12.318-12.365-20.203-17.195-6.869-4.211-14.362-7.317-22.199-9.199-8.99-2.155-18.163-2.138-26.445-2.125-0.7 0.004-1.395 0.004-2.086 0.004h-114.112c-0.691 0-1.387 0-2.086-0.004-8.282-0.013-17.455-0.030-26.447 2.125-7.837 1.882-15.328 4.988-22.199 9.199-7.883 4.83-14.357 11.328-20.202 17.195-0.496 0.499-0.987 0.99-1.474 1.476l-2.677 2.679c-3.9 3.9-6.037 6.025-7.712 7.552-0.848 0.777-1.28 1.118-1.427 1.229-0.724 0.435-1.507 0.759-2.326 0.96-0.183 0.030-0.73 0.094-1.875 0.145-2.266 0.102-5.28 0.111-10.795 0.111h-227.723c-4.713 0-8.533-3.819-8.533-8.533v-14.221c0-28.651 0.293-36.279 1.745-41.698 4.734-17.668 18.535-31.467 36.204-36.203 5.417-1.451 13.046-1.745 41.696-1.745h625.779c28.651 0 36.279 0.294 41.694 1.745 17.668 4.736 31.471 18.534 36.207 36.203 1.451 5.419 1.741 13.047 1.741 41.698 0 6.921-0.004 10.974-0.145 14.003-0.073 1.583-0.162 2.364-0.201 2.628-0.819 2.782-2.995 4.958-5.777 5.777-0.265 0.034-1.045 0.128-2.628 0.201-3.025 0.137-7.078 0.145-14.003 0.145h-213.5z" />
<glyph unicode="&#xe943;" glyph-name="device" d="M86.193 788.477c22.404 22.404 52.791 34.991 84.476 34.991h512.002c31.684 0 62.067-12.587 84.471-34.991 22.409-22.404 34.991-52.791 34.991-84.476v-85.333c0-18.851-15.279-34.133-34.129-34.133-18.854 0-34.133 15.282-34.133 34.133v85.333c0 13.579-5.397 26.602-14.997 36.204-9.604 9.602-22.626 14.996-36.203 14.996h-512.002c-13.579 0-26.602-5.394-36.204-14.996s-14.996-22.625-14.996-36.204v-298.667c0-13.581 5.394-26.603 14.996-36.203 9.602-9.604 22.625-14.997 36.204-14.997h341.335c18.85 0 34.133-15.283 34.133-34.133s-15.283-34.133-34.133-34.133h-51.2v-102.4h51.2c18.85 0 34.133-15.283 34.133-34.133s-15.283-34.133-34.133-34.133h-84.996c-0.111 0-0.226 0-0.339 0s-0.227 0-0.341 0h-127.659c-18.851 0-34.133 15.283-34.133 34.133s15.282 34.133 34.133 34.133h93.867v102.4h-221.867c-31.685 0-62.071 12.587-84.476 34.991s-34.991 52.791-34.991 84.476v298.667c0 31.685 12.587 62.071 34.991 84.476zM768.004 413.868c-28.279 0-51.2-22.925-51.2-51.2v-256c0-28.275 22.921-51.2 51.2-51.2h85.333c28.275 0 51.2 22.925 51.2 51.2v256c0 28.275-22.925 51.2-51.2 51.2h-85.333zM648.537 362.668c0 65.98 53.487 119.467 119.467 119.467h85.333c65.975 0 119.462-53.487 119.462-119.467v-256c0-65.98-53.487-119.467-119.462-119.467h-85.333c-65.98 0-119.467 53.487-119.467 119.467v256z" />
<glyph unicode="&#xe944;" glyph-name="mobile" d="M195.601 672.105c0 113.108 91.692 204.8 204.8 204.8h223.198c113.109 0 204.8-91.692 204.8-204.8v-533.542c0-113.109-91.691-204.8-204.8-204.8h-223.198c-113.108 0-204.8 91.691-204.8 204.8v533.542zM350.070 799.062c-50.496-20.036-86.202-69.327-86.202-126.957v-533.542c0-75.405 61.128-136.533 136.533-136.533h223.198c75.405 0 136.533 61.129 136.533 136.533v533.542c0 57.475-35.516 106.656-85.794 126.795v-38.574c0-10.94 0-21.108-0.695-29.632-0.755-9.226-2.492-19.486-7.676-29.664-7.364-14.451-19.115-26.2-33.566-33.563-10.176-5.186-20.437-6.922-29.662-7.676-8.525-0.696-18.692-0.695-29.632-0.695h-120.636c-0.393 0-0.785 0-1.173 0-10.94-0.001-21.107-0.002-29.632 0.695-9.226 0.754-19.486 2.49-29.664 7.676-14.451 7.363-26.2 19.112-33.563 33.563-5.186 10.177-6.922 20.438-7.676 29.664-0.696 8.524-0.695 18.692-0.695 29.632 0 0.39 0 0.78 0 1.171v37.565zM418.336 808.638v-47.142c0-12.511 0.026-19.841 0.468-25.244 0.223-2.733 0.5-4.056 0.618-4.523 0.77-1.376 1.905-2.511 3.281-3.281 0.467-0.118 1.789-0.395 4.523-0.618 5.402-0.441 12.732-0.468 25.246-0.468h119.467c12.51 0 19.84 0.027 25.242 0.468 2.735 0.223 4.058 0.5 4.523 0.618 1.374 0.77 2.513 1.905 3.281 3.281 0.119 0.467 0.397 1.79 0.619 4.523 0.439 5.402 0.469 12.733 0.469 25.244v47.142h-187.735zM604.924 731.526c0 0 0.004 0.016 0.017 0.045l-0.017-0.045z" />
<glyph unicode="&#xe945;" glyph-name="close-circle" d="M512-106.666c-282.77 0-512 229.231-512 512s229.23 512 512 512c282.769 0 512-229.23 512-512s-229.231-512-512-512zM690.85 618.677c-9.476 9.251-24.845 9.251-34.321 0l-144.529-144.53-144.53 144.53c-9.476 9.251-24.842 9.251-34.318 0l-34.318-33.501c-9.476-9.251-9.476-24.25 0-33.502l145.347-145.346-145.629-145.626c-9.157-9.485-9.125-24.781 0.094-34.223l33.501-34.317c9.251-9.476 24.249-9.481 33.501-0.004l146.351 146.351 146.351-146.351c9.25-9.476 24.252-9.472 33.502 0.004l33.502 34.317c9.22 9.442 9.25 24.738 0.094 34.223l-145.63 145.626 145.348 145.346c9.476 9.252 9.476 24.251 0 33.502l-34.317 33.501z" />
<glyph unicode="&#xe946;" glyph-name="check-circle" d="M512-106.666c-282.77 0-512 229.231-512 512s229.23 512 512 512c282.769 0 512-229.23 512-512s-229.231-512-512-512zM263.498 366.9l166.399-167.356c9.997-10.057 26.206-10.057 36.207-0.004l294.4 296.096c9.997 10.055 9.997 26.358 0 36.412l-36.203 36.412c-9.997 10.054-26.21 10.054-36.207 0l-240.094-241.475-112.095 112.738c-9.997 10.057-26.207 10.057-36.204 0l-36.203-36.412c-9.997-10.057-9.997-26.359 0-36.412z" />
<glyph unicode="&#xe947;" glyph-name="assign" d="M315.116 821.955c94.030 44.436 200.329 55.757 301.606 32.121 101.282-23.636 191.586-80.838 256.235-162.304s99.836-182.408 99.844-286.408v-42.671c0-42.999-17.084-84.237-47.488-114.645-30.409-30.404-71.646-47.488-114.645-47.488-43.004 0-84.241 17.084-114.645 47.488-9.101 9.101-17.007 19.17-23.62 29.969-37.517-47.198-95.428-77.457-160.401-77.457-113.109 0-204.802 91.695-204.802 204.8 0 113.109 91.692 204.801 204.802 204.801 52.45 0 100.301-19.719 136.533-52.148v18.015c0 18.851 15.279 34.133 34.133 34.133 18.85 0 34.133-15.282 34.133-34.133v-213.335c0-24.892 9.886-48.768 27.49-66.372s41.481-27.494 66.377-27.494c24.892 0 48.768 9.89 66.372 27.494s27.494 41.481 27.494 66.372v42.667c0 0 0 0 0 0-0.009 88.592-29.982 174.58-85.052 243.977s-131.998 118.125-218.274 138.26c-86.276 20.134-176.825 10.49-256.925-27.363s-145.039-101.689-184.259-181.129c-39.22-79.439-50.413-169.811-31.759-256.416 18.653-86.609 66.056-164.361 134.5-220.612s153.905-87.693 242.486-89.216c88.58-1.523 175.070 26.961 245.41 80.828 14.963 11.46 36.39 8.619 47.851-6.349s8.619-36.39-6.345-47.851c-82.573-63.232-184.107-96.674-288.090-94.886-103.987 1.788-204.31 38.699-284.657 104.734s-135.994 157.308-157.891 258.978c-21.897 101.67-8.757 207.756 37.283 301.012s122.273 168.193 216.304 212.629zM648.534 405.359c0 75.405-61.129 136.535-136.533 136.535s-136.535-61.13-136.535-136.535c0-75.405 61.13-136.533 136.535-136.533s136.533 61.129 136.533 136.533z" />
<glyph unicode="&#xe948;" glyph-name="map-category" d="M127.998 823.467c18.851 0 34.133-15.282 34.133-34.133v-179.2h447.332c15.676 73.153 80.7 128 158.537 128 89.54 0 162.133-72.59 162.133-162.133s-72.593-162.133-162.133-162.133c-77.837 0-142.861 54.848-158.537 128h-447.332v-187.733c0-36.407 0.026-61.658 1.631-81.293 1.571-19.23 4.485-30.046 8.6-38.123 8.999-17.66 23.359-32.021 41.021-41.020 8.077-4.117 18.891-7.031 38.124-8.602 19.632-1.604 44.884-1.63 81.291-1.63h276.666c15.676 73.152 80.7 128 158.537 128 89.54 0 162.133-72.589 162.133-162.133s-72.593-162.133-162.133-162.133c-77.837 0-142.861 54.848-158.537 128h-278.117c-34.612 0-62.659 0-85.398 1.856-23.455 1.916-44.253 5.978-63.557 15.817-30.508 15.543-55.311 40.346-70.855 70.852-9.836 19.307-13.898 40.102-15.814 63.556-1.858 22.741-1.858 50.79-1.857 85.402v436.65c0 18.851 15.282 34.133 34.133 34.133zM768 669.867c-51.844 0-93.871-42.026-93.871-93.867s42.027-93.866 93.871-93.866c51.84 0 93.862 42.025 93.862 93.866s-42.022 93.867-93.862 93.867zM768 243.201c-51.844 0-93.871-42.027-93.871-93.867s42.027-93.867 93.871-93.867c51.84 0 93.862 42.027 93.862 93.867s-42.022 93.867-93.862 93.867z" />
<glyph unicode="&#xe949;" glyph-name="map-site" d="M288.682 823.468h446.637c34.611 0 62.656 0 85.397-1.857 23.454-1.917 44.254-5.978 63.556-15.814 30.507-15.544 55.313-40.347 70.857-70.855 9.835-19.304 13.897-40.102 15.812-63.558 1.86-22.739 1.86-50.786 1.86-85.398v-361.302c0-34.611 0-62.66-1.86-85.402-1.916-23.454-5.978-44.25-15.812-63.556-15.543-30.507-40.35-55.309-70.857-70.852-19.302-9.839-40.102-13.901-63.556-15.817-22.741-1.856-50.786-1.856-85.397-1.856h-446.635c-34.613 0-62.661 0-85.401 1.856-23.455 1.916-44.253 5.978-63.557 15.817-30.508 15.543-55.311 40.346-70.855 70.852-9.836 19.307-13.898 40.102-15.814 63.561-1.858 22.737-1.858 50.786-1.857 85.397v361.3c0 34.612 0 62.659 1.857 85.399 1.917 23.455 5.978 44.253 15.814 63.557 15.544 30.508 40.347 55.311 70.855 70.855 19.304 9.836 40.102 13.898 63.557 15.814 22.74 1.858 50.787 1.858 85.399 1.857zM119.466 499.201v-273.066c0-36.407 0.026-61.658 1.631-81.293 1.571-19.23 4.485-30.046 8.6-38.123 8.999-17.66 23.359-32.021 41.021-41.020 8.077-4.117 18.891-7.031 38.124-8.602 19.632-1.604 44.884-1.63 81.291-1.63h443.735c36.403 0 61.658 0.026 81.289 1.63 19.234 1.57 30.046 4.484 38.123 8.602 17.664 8.998 32.021 23.36 41.024 41.020 4.113 8.077 7.027 18.893 8.597 38.123 1.604 19.635 1.634 44.885 1.634 81.293v273.066h-785.069zM904.534 567.468v17.067c0 36.407-0.030 61.658-1.634 81.291-1.57 19.233-4.484 30.047-8.597 38.124-9.003 17.662-23.36 32.022-41.024 41.021-8.077 4.115-18.889 7.029-38.123 8.6-19.631 1.604-44.885 1.631-81.289 1.631h-443.735c-36.407 0-61.658-0.026-81.291-1.631-19.233-1.571-30.047-4.485-38.124-8.6-17.662-8.999-32.022-23.359-41.021-41.021-4.115-8.077-7.029-18.891-8.6-38.124-1.604-19.632-1.631-44.884-1.631-81.291v-17.067h785.069z" />
<glyph unicode="&#xe94a;" glyph-name="status" d="M512.003 797.867c-216.792 0-392.535-175.743-392.535-392.533s175.743-392.533 392.535-392.533c216.789 0 392.533 175.744 392.533 392.533s-175.744 392.533-392.533 392.533zM51.201 405.334c0 254.492 206.307 460.8 460.802 460.8 254.49 0 460.796-206.307 460.796-460.8s-206.306-460.8-460.796-460.8c-254.495 0-460.802 206.306-460.802 460.8zM512.003 541.867c-75.409 0-136.535-61.128-136.535-136.533s61.126-136.533 136.535-136.533c75.405 0 136.533 61.129 136.533 136.533s-61.129 136.533-136.533 136.533zM307.201 405.334c0 113.107 91.692 204.8 204.802 204.8 113.105 0 204.8-91.692 204.8-204.8s-91.695-204.8-204.8-204.8c-113.11 0-204.802 91.691-204.802 204.8z" />
<glyph unicode="&#xe94b;" glyph-name="check-square" d="M331.348 823.467h361.299c34.615 0 62.66 0 85.402-1.857 23.454-1.917 44.254-5.978 63.556-15.814 30.507-15.544 55.313-40.347 70.857-70.855 9.835-19.304 13.897-40.102 15.812-63.557 1.86-22.74 1.86-50.787 1.86-85.398v-361.302c0-34.611 0-62.66-1.86-85.397-1.916-23.458-5.978-44.254-15.812-63.561-15.543-30.507-40.35-55.309-70.857-70.852-19.302-9.839-40.102-13.901-63.556-15.817-22.741-1.856-50.786-1.856-85.397-1.856h-361.304c-34.612 0-62.659 0-85.398 1.856-23.455 1.916-44.253 5.978-63.557 15.817-30.508 15.543-55.311 40.346-70.855 70.852-9.836 19.307-13.898 40.102-15.814 63.561-1.858 22.737-1.858 50.786-1.857 85.397v361.3c0 34.612 0 62.659 1.857 85.399 1.917 23.455 5.978 44.253 15.814 63.557 15.544 30.508 40.347 55.311 70.855 70.855 19.304 9.836 40.102 13.898 63.557 15.814 22.74 1.858 50.787 1.858 85.399 1.857zM251.507 753.57c-19.233-1.571-30.047-4.485-38.124-8.6-17.662-8.999-32.022-23.359-41.021-41.021-4.115-8.077-7.029-18.891-8.6-38.124-1.604-19.632-1.631-44.884-1.631-81.291v-358.4c0-36.407 0.026-61.658 1.631-81.293 1.571-19.23 4.485-30.046 8.6-38.123 8.999-17.66 23.359-32.021 41.021-41.020 8.077-4.117 18.891-7.031 38.124-8.602 19.632-1.604 44.884-1.63 81.291-1.63h358.402c36.403 0 61.658 0.026 81.289 1.63 19.234 1.57 30.046 4.484 38.123 8.602 17.664 8.998 32.021 23.36 41.024 41.020 4.113 8.077 7.027 18.893 8.597 38.123 1.604 19.635 1.63 44.885 1.63 81.293v358.4c0 36.407-0.026 61.658-1.63 81.291-1.57 19.233-4.484 30.047-8.597 38.124-9.003 17.662-23.36 32.022-41.024 41.021-8.077 4.115-18.889 7.029-38.123 8.6-19.631 1.604-44.885 1.631-81.289 1.631h-358.402c-36.407 0-61.658-0.026-81.291-1.631zM728.132 557.469c13.333-13.33 13.333-34.942 0-48.272l-256-256c-13.329-13.329-34.94-13.329-48.27 0l-128 128c-13.33 13.329-13.33 34.944 0 48.273s34.942 13.329 48.272 0l103.866-103.863 231.863 231.862c13.329 13.33 34.94 13.33 48.269 0z" />
<glyph unicode="&#xe94c;" glyph-name="currency" horiz-adv-x="1067" d="M533.499 801.281c-218.674 0-395.945-177.271-395.945-395.947s177.271-395.947 395.945-395.947c218.675 0 395.947 177.271 395.947 395.947s-177.271 395.947-395.947 395.947zM76.114 405.334c0 252.608 204.779 457.387 457.385 457.387 252.608 0 457.387-204.779 457.387-457.387s-204.779-457.387-457.387-457.387c-252.606 0-457.385 204.779-457.385 457.387zM533.499 713.387c16.969 0 30.72-13.754 30.72-30.72v-33.28h19.059c71.949 0 130.274-58.326 130.274-130.275 0-16.966-13.751-30.719-30.72-30.719-16.964 0-30.72 13.752-30.72 30.719 0 38.017-30.818 68.835-68.834 68.835h-92.446c-41.941 0-75.945-34.002-75.945-75.947s34.004-75.947 75.945-75.947h85.333c75.878 0 137.387-61.508 137.387-137.387s-61.508-137.387-137.387-137.387h-11.947v-33.28c0-16.964-13.751-30.72-30.72-30.72-16.964 0-30.72 13.756-30.72 30.72v33.28h-19.055c-71.951 0-130.277 58.325-130.277 130.274 0 16.969 13.754 30.72 30.72 30.72s30.72-13.751 30.72-30.72c0-38.016 30.817-68.834 68.837-68.834h92.442c41.946 0 75.947 34.001 75.947 75.947s-34.001 75.947-75.947 75.947h-85.333c-75.875 0-137.385 61.508-137.385 137.387 0 75.877 61.51 137.387 137.385 137.387h11.947v33.28c0 16.966 13.756 30.72 30.72 30.72z" />
<glyph unicode="&#xe94d;" glyph-name="getting-ready" d="M512.003 797.867c-216.792 0-392.535-175.743-392.535-392.533s175.743-392.533 392.535-392.533c216.789 0 392.533 175.744 392.533 392.533s-175.744 392.533-392.533 392.533zM51.201 405.334c0 254.493 206.307 460.8 460.802 460.8 254.49 0 460.796-206.307 460.796-460.8s-206.306-460.8-460.796-460.8c-254.495 0-460.802 206.306-460.802 460.8zM512.003 695.467c18.85 0 34.133-15.282 34.133-34.133v-234.906l151.795-75.9c16.862-8.427 23.697-28.932 15.266-45.794s-28.932-23.693-45.794-15.262l-170.667 85.333c-11.563 5.781-18.867 17.6-18.867 30.528v256c0 18.851 15.279 34.133 34.133 34.133z" />
<glyph unicode="&#xe94e;" glyph-name="needs-attention" d="M512.003 797.867c-216.792 0-392.535-175.743-392.535-392.533s175.743-392.533 392.535-392.533c216.789 0 392.533 175.744 392.533 392.533s-175.744 392.533-392.533 392.533zM51.201 405.334c0 254.493 206.307 460.8 460.802 460.8 254.49 0 460.796-206.307 460.796-460.8s-206.306-460.8-460.796-460.8c-254.495 0-460.802 206.306-460.802 460.8zM477.87 576.001c0 18.851 15.279 34.133 34.133 34.133h0.427c18.85 0 34.133-15.282 34.133-34.133s-15.283-34.133-34.133-34.133h-0.427c-18.854 0-34.133 15.282-34.133 34.133zM512.003 439.467c18.85 0 34.133-15.283 34.133-34.133v-170.667c0-18.85-15.283-34.133-34.133-34.133-18.854 0-34.133 15.283-34.133 34.133v170.667c0 18.85 15.279 34.133 34.133 34.133z" />
<glyph unicode="&#xe94f;" glyph-name="ready" d="M512.003 797.867c-216.792 0-392.535-175.743-392.535-392.533s175.743-392.533 392.535-392.533c216.789 0 392.533 175.744 392.533 392.533s-175.744 392.533-392.533 392.533zM51.201 405.334c0 254.493 206.307 460.8 460.802 460.8 254.49 0 460.796-206.307 460.796-460.8s-206.306-460.8-460.796-460.8c-254.495 0-460.802 206.306-460.802 460.8zM728.135 557.47c13.333-13.33 13.333-34.942 0-48.272l-256-256.001c-13.329-13.329-34.94-13.329-48.27 0l-128 128c-13.33 13.329-13.33 34.944 0 48.273s34.942 13.329 48.272 0l103.866-103.863 231.863 231.863c13.329 13.33 34.94 13.33 48.269 0z" />
<glyph unicode="&#xe950;" glyph-name="synchronizing" d="M512.003 797.867c-216.792 0-392.535-175.743-392.535-392.533s175.743-392.533 392.535-392.533c216.789 0 392.533 175.744 392.533 392.533s-175.744 392.533-392.533 392.533zM51.201 405.334c0 254.493 206.307 460.8 460.802 460.8 254.49 0 460.796-206.307 460.796-460.8s-206.306-460.8-460.796-460.8c-254.495 0-460.802 206.306-460.802 460.8zM524.457 583.374c-21.85 3.747-44.318-0.358-63.428-11.59-19.115-11.232-33.634-28.865-40.989-49.776-6.256-17.783-25.743-27.128-43.526-20.872s-27.128 25.743-20.873 43.526c12.706 36.119 37.786 66.577 70.796 85.978s71.823 26.492 109.561 20.019 71.966-26.094 96.623-55.386c24.653-29.286 38.148-66.349 38.101-104.626-0.013-60.774-45.146-101.675-79.202-124.378-18.069-12.049-35.895-20.937-49.071-26.79-6.635-2.953-12.211-5.184-16.209-6.707-2.005-0.764-3.618-1.353-4.779-1.766l-2.035-0.704c-0.013-0.004-0.047-0.013-10.837 32.367l10.79-32.38c-17.882-5.965-37.214 3.703-43.174 21.585-5.956 17.865 3.682 37.171 21.53 43.157-0.004 0 0 0 0 0s0.038 0.013 0.043 0.013c-0.009 0 0.004 0.004 0 0l0.811 0.286c0.713 0.252 1.852 0.666 3.349 1.237 2.999 1.143 7.424 2.91 12.787 5.295 10.825 4.809 24.998 11.921 38.929 21.205 29.939 19.959 48.802 43.055 48.802 67.601v0.051c0.030 22.168-7.782 43.631-22.059 60.59s-34.091 28.318-55.94 32.066zM477.87 192.001c0 18.85 15.279 34.133 34.133 34.133h0.427c18.85 0 34.133-15.283 34.133-34.133s-15.283-34.133-34.133-34.133h-0.427c-18.854 0-34.133 15.283-34.133 34.133z" />
<glyph unicode="&#xe951;" glyph-name="not-saved" d="M437.417 790.717c49.263 9.533 99.895 9.533 149.158 0 18.509-3.582 36.416 8.518 39.996 27.026 3.584 18.508-8.516 36.415-27.025 39.997-57.83 11.192-117.269 11.192-175.102 0-18.508-3.581-30.608-21.489-27.026-39.997s21.489-30.608 39.999-27.026zM437.417 19.952c-18.51 3.58-36.417-8.521-39.999-27.025-3.582-18.509 8.518-36.416 27.026-40 57.833-11.191 117.271-11.191 175.102 0 18.509 3.584 30.609 21.491 27.025 40-3.58 18.505-21.487 30.605-39.996 27.025-49.263-9.536-99.895-9.536-149.158 0zM723.044 777.715c10.573 15.607 31.799 19.686 47.403 9.111 48.913-33.141 90.995-75.38 123.955-124.414 10.517-15.645 6.357-36.854-9.289-47.37s-36.851-6.359-47.369 9.287c-28.079 41.77-63.923 77.751-105.591 105.983-15.603 10.574-19.686 31.798-9.109 47.404zM126.613 479.915c3.581 18.506-8.518 36.413-27.026 39.995s-36.415-8.518-39.997-27.026c-11.192-57.833-11.192-117.272 0-175.102 3.582-18.509 21.489-30.609 39.997-27.025 18.508 3.58 30.608 21.487 27.026 39.996-9.534 49.263-9.534 99.895 0 149.163zM884.384 194.275c15.607-10.573 19.686-31.799 9.114-47.403-33.143-48.913-75.379-90.995-124.416-123.955-15.646-10.517-36.851-6.357-47.369 9.289-10.517 15.642-6.357 36.851 9.284 47.369 41.771 28.075 77.751 63.923 105.984 105.591 10.577 15.603 31.799 19.682 47.403 9.109zM964.41 492.884c-3.58 18.508-21.487 30.608-39.996 27.026s-30.609-21.489-27.029-39.995c9.536-49.267 9.536-99.9 0-149.163-3.58-18.509 8.521-36.416 27.029-39.996 18.509-3.584 36.416 8.516 39.996 27.025 11.191 57.83 11.191 117.269 0 175.102zM302.287 778.461c10.516-15.645 6.359-36.853-9.287-47.37-41.77-28.077-77.751-63.924-105.982-105.59-10.575-15.606-31.798-19.686-47.404-9.111s-19.686 31.798-9.111 47.404c33.141 48.912 75.38 90.994 124.415 123.953 15.645 10.516 36.854 6.359 47.37-9.287zM186.234 186.343c-10.516 15.646-31.725 19.806-47.37 9.289s-19.803-31.727-9.287-47.373c32.96-49.033 75.042-91.273 123.954-124.412 15.606-10.577 36.83-6.498 47.404 9.109s6.495 36.83-9.111 47.403c-41.666 28.233-77.513 64.213-105.59 105.984z" />
<glyph unicode="&#xe952;" glyph-name="lightning" d="M503.625 849.912c30.997 47.337 104.58 25.39 104.58-31.191v-277.762h186.214c48.009 0 76.826-53.31 50.526-93.472l-317.931-485.568c-31.475-48.073-110.042-28.826-110.042 32.734v267.87h-188.78c-46.907 0-75.060 52.092-49.366 91.332l324.797 496.057z" />
<glyph unicode="&#xe953;" glyph-name="links" d="M258.9 871.768h506.199c117.82 0 213.333-95.513 213.333-213.333v-506.202c0-117.82-95.514-213.333-213.333-213.333h-506.199c-117.821 0-213.333 95.514-213.333 213.333v506.202c0 117.821 95.512 213.333 213.333 213.333zM281.638 272.336c-31.745 54.985-12.906 125.291 42.078 157.035l52.322 30.208c17.257 9.967 23.17 32.032 13.207 49.29s-32.031 23.17-49.288 13.207l-52.322-30.208c-89.499-51.672-120.163-166.112-68.491-255.614 51.672-89.498 166.114-120.162 255.614-68.489l52.322 30.208c17.254 9.963 23.168 32.030 13.205 49.284-9.963 17.259-32.030 23.172-49.289 13.21l-52.322-30.208c-54.983-31.748-125.292-12.907-157.037 42.078zM496.923 612.699c-17.259-9.964-23.172-32.031-13.205-49.288 9.963-17.257 32.030-23.171 49.284-13.207l52.322 30.208c54.985 31.745 125.295 12.906 157.039-42.078 31.744-54.982 12.907-125.293-42.078-157.037l-52.322-30.208c-17.259-9.963-23.168-32.030-13.205-49.289s32.030-23.172 49.289-13.205l52.322 30.208c89.498 51.669 120.162 166.114 68.489 255.612-51.669 89.499-166.114 120.163-255.612 68.491l-52.322-30.208zM363.155 361.061c-17.257-9.963-23.17-32.030-13.207-49.289 9.964-17.254 32.031-23.168 49.288-13.205l261.612 151.040c17.254 9.963 23.168 32.030 13.205 49.289-9.963 17.257-32.030 23.17-49.289 13.207l-261.61-151.041z" />
<glyph unicode="&#xe954;" glyph-name="partners" d="M918.563 753.065c-57.033 57.037-132.873 88.448-213.534 88.448-80.666 0-156.497-31.411-213.534-88.448l-20.506-20.509c-46.786-46.786-46.79-122.912 0-169.705 22.665-22.659 52.8-35.142 84.851-35.142h0.004c32.051 0.002 62.178 12.481 84.843 35.144l82.048 82.046 248.303-248.305c61.35 114.317 43.878 260.113-52.476 356.471zM468.178 302.671c-19.989 19.989-45.794 32.043-73.59 34.615l-130.729-130.726c2.559-27.691 14.538-53.393 34.384-73.348l0.475-0.474c19.951-19.849 45.655-31.821 73.344-34.381l130.726 130.726c-2.573 27.797-14.626 53.602-34.611 73.587zM254.643 466.498c32.049 0 62.185-12.48 84.849-35.145 11.925-11.921 20.765-25.766 26.6-40.529l-155.846-155.844c-14.971 5.956-28.721 14.938-40.456 26.675-22.665 22.66-35.15 52.796-35.15 84.847s12.481 62.187 35.15 84.851c22.664 22.665 52.798 35.145 84.849 35.145h0.004zM854.239 431.349l-131.507 131.502-41.024-41.026c-33.617-33.618-78.319-52.131-125.867-52.131-47.543 0-92.241 18.509-125.873 52.133-69.404 69.406-69.404 182.336-0.004 251.736l20.512 20.515c3.891 3.891 7.863 7.668 11.895 11.356-43.537 23.554-92.5 36.068-143.392 36.070-80.658 0-156.497-31.409-213.534-88.445-107.367-107.368-116.805-276.138-28.349-394.329 2.896 42.94 20.956 82.923 51.68 113.638 33.621 33.623 78.319 52.137 125.868 52.137h0.004c47.548 0 92.247-18.514 125.867-52.137 22.871-22.869 38.786-51.234 46.574-81.937 30.807-7.748 59.061-23.701 82.11-46.746 23.014-23.019 38.955-51.226 46.72-81.975 30.754-7.765 58.957-23.701 81.967-46.711 29.146-29.146 46.916-66.62 51.136-107.051 13.444 5.922 25.826 14.319 36.531 25.020 22.669 22.66 35.153 52.796 35.149 84.847 0 3.059-0.149 6.097-0.375 9.114 3.017-0.222 6.037-0.367 9.058-0.367 30.729-0.004 61.461 11.695 84.847 35.089 22.669 22.665 35.149 52.796 35.153 84.851-0.004 32.051-12.489 62.187-35.145 84.847zM631.664 97.837c0.090-1.259 0.166-2.513 0.218-3.772 0.068-1.638 0.124-3.277 0.119-4.928 0-7.518-0.708-14.916-2.048-22.148-4.386-23.612-15.744-45.342-33.092-62.69-22.665-22.66-52.804-35.145-84.851-35.145h-0.004c-32.047 0-62.178 12.484-84.844 35.149v0l-0.439 0.439c-11.519 11.639-20.355 25.225-26.237 40.004l155.914 155.913c14.976-5.952 28.727-14.933 40.461-26.667 20.599-20.604 32.751-47.381 34.803-76.156z" />
<glyph unicode="&#xe955;" glyph-name="pixels" d="M426.667 789.334h-256c-11.316 0-22.168-4.495-30.17-12.497s-12.497-18.854-12.497-30.17v-256c0-11.315 4.495-22.17 12.497-30.17s18.854-12.497 30.17-12.497h256c11.315 0 22.17 4.497 30.17 12.497s12.497 18.854 12.497 30.17v256c0 11.316-4.497 22.168-12.497 30.17s-18.854 12.497-30.17 12.497zM853.333 362.667h-256c-11.315 0-22.17-4.497-30.17-12.497s-12.497-18.854-12.497-30.17v-256c0-11.315 4.497-22.17 12.497-30.17s18.854-12.497 30.17-12.497h256c11.315 0 22.17 4.497 30.17 12.497s12.497 18.854 12.497 30.17v256c0 11.315-4.497 22.17-12.497 30.17s-18.854 12.497-30.17 12.497zM725.333 789.334c-94.123 0-170.667-76.544-170.667-170.667s76.544-170.667 170.667-170.667c94.123 0 170.667 76.544 170.667 170.667s-76.544 170.667-170.667 170.667zM298.667 362.667c-94.123 0-170.667-76.544-170.667-170.667s76.544-170.667 170.667-170.667c94.123 0 170.667 76.544 170.667 170.667s-76.544 170.667-170.667 170.667z" />
<glyph unicode="&#xe956;" glyph-name="publishers" d="M213.333 832.002h597.333c70.694 0 128-57.308 128-128v-597.333c0-70.694-57.306-128-128-128h-106.667c-23.565 0-42.667 19.102-42.667 42.667s19.102 42.667 42.667 42.667h106.667c23.565 0 42.667 19.102 42.667 42.667v384h-682.666v-384c0-23.565 19.103-42.667 42.667-42.667h85.333c23.564 0 42.667-19.102 42.667-42.667s-19.103-42.667-42.667-42.667h-85.333c-70.692 0-128 57.306-128 128v597.333c0 70.692 57.308 128 128 128zM426.666 618.668c23.565 0 42.667 19.103 42.667 42.667s-19.102 42.667-42.667 42.667c-23.564 0-42.666-19.103-42.666-42.667s19.103-42.667 42.666-42.667zM478.979 389.685c8.102 9.907 20.224 15.65 33.024 15.65 12.796 0 24.917-5.743 33.020-15.65l128-156.442c14.925-18.24 12.237-45.12-6.003-60.041-18.236-14.925-45.12-12.237-60.041 6.003l-52.309 63.936v-221.807c0-23.565-19.102-42.667-42.667-42.667s-42.667 19.102-42.667 42.667v221.807l-52.314-63.936c-14.922-18.236-41.803-20.924-60.041-6.003s-20.925 41.801-6.004 60.041l128 156.442zM253.368 618.668c23.564 0 42.667 19.103 42.667 42.667s-19.103 42.667-42.667 42.667c-23.564 0-42.667-19.103-42.667-42.667s19.103-42.667 42.667-42.667z" />
<glyph unicode="&#xe957;" glyph-name="rules" d="M911.203 786.962c-44.629 36.966-102.831 52.288-162.598 41.466l-69.001-16.757c-74.394-13.46-128.41-77.657-128.41-152.675v-560.709c0-22.532-16.585-42.069-39.117-42.069s-39.113 19.537-39.113 42.069v560.709c0 75.019-54.017 139.215-126.183 152.171l-73.535 17.727c-57.263 10.202-115.622-4.965-160.33-41.932-44.669-36.966-70.249-91.233-70.249-148.874v-418.615c0-93.756 67.551-174.012 160.564-190.805l245.836-44.339c20.885-3.763 41.89-5.662 62.933-5.662s42.048 1.86 62.933 5.662l245.837 44.339c93.052 16.794 160.563 97.050 160.563 190.805v418.615c0 57.68-25.579 111.946-70.251 148.874h0.119zM375.961 436.617l-86.482-85.065c-31.135-31.927-82.844-31.693-113.627 0.58l-44.239 45.577c-14.355 15.014-14.237 38.596 0.235 53.491 15.45 15.945 41.227 15.825 56.521-0.23l44.512-45.888 86.834 85.412c15.294 15.71 40.679 15.788 56.051 0.155 14.785-15.010 14.864-38.946 0.157-54.071l0.039 0.038zM872.206 374.592c15.292-15.168 15.292-39.684 0-54.848-7.629-7.565-17.643-11.366-27.657-11.366-10.010 0-20.023 3.802-27.652 11.366l-50.573 50.155-50.577-50.155c-7.629-7.565-17.638-11.366-27.652-11.366s-20.028 3.802-27.657 11.366c-15.292 15.164-15.292 39.68 0 54.848l50.577 50.155-50.577 50.155c-15.292 15.166-15.292 39.681 0 54.848 15.296 15.167 40.017 15.167 55.309 0l50.577-50.154 50.573 50.154c15.296 15.167 40.013 15.167 55.309 0 15.292-15.167 15.292-39.682 0-54.848l-50.577-50.155 50.577-50.155z" />
<glyph unicode="&#xe958;" glyph-name="scripts" d="M85.333 725.334v-74.667h128v74.667c0 35.346-28.654 64-64 64s-64-28.654-64-64zM85.333 169.008v417.66h128v-417.66c0-33.694-9.973-66.633-28.663-94.669l-17.586-26.381c-8.445-12.663-27.057-12.663-35.501 0l-17.586 26.381c-18.69 28.036-28.663 60.975-28.663 94.669zM341.333 661.334c0 70.692 57.308 128 128 128h341.333c70.694 0 128-57.308 128-128v-512c0-70.694-57.306-128-128-128h-341.333c-70.692 0-128 57.306-128 128v512zM480 576.001c0 17.673 14.327 32 32 32h256c17.673 0 32-14.327 32-32s-14.327-32-32-32h-256c-17.673 0-32 14.327-32 32zM512 437.334c-17.673 0-32-14.327-32-32s14.327-32 32-32h256c17.673 0 32 14.327 32 32s-14.327 32-32 32h-256zM480 234.667c0 17.673 14.327 32 32 32h128c17.673 0 32-14.327 32-32s-14.327-32-32-32h-128c-17.673 0-32 14.327-32 32z" />
<glyph unicode="&#xe959;" glyph-name="settings" d="M911.172 312.274l-78.059 61.035c0.99 9.417 1.839 20.42 1.839 32.060 0 11.644-0.815 22.647-1.839 32.060l78.127 61.073c14.511 11.465 18.47 31.811 9.237 48.759l-81.173 140.443c-8.67 15.852-27.674 23.991-46.955 16.878l-92.109-36.976c-17.655 12.739-36.16 23.495-55.305 32.093l-14.012 97.696c-2.3 18.542-18.436 32.554-37.508 32.554h-162.769c-19.071 0-35.17-14.012-37.436-32.271l-14.047-98.051c-18.542-8.352-36.764-18.967-55.2-32.093l-92.354 37.082c-17.305 6.688-38.005-0.813-46.603-16.595l-81.277-140.619c-9.588-16.207-5.626-37.26 9.201-49.008l78.058-61.039c-1.239-11.925-1.839-22.293-1.839-32.021 0-9.732 0.602-20.1 1.839-32.060l-78.129-61.073c-14.508-11.499-18.436-31.846-9.201-48.759l81.173-140.442c8.669-15.817 27.494-24.026 46.955-16.879l92.107 36.975c17.621-12.702 36.127-23.458 55.271-32.090l14.013-97.664c2.299-18.611 18.399-32.623 37.509-32.623h162.765c19.076 0 35.209 14.012 37.474 32.269l14.046 98.018c18.543 8.384 36.732 18.965 55.202 32.128l92.352-37.082c4.459-1.732 9.097-2.62 13.871-2.62 13.73 0 26.364 7.501 32.73 19.179l81.527 141.184c9.058 16.559 5.094 36.907-9.481 48.478zM512.033 263.796c-78.059 0-141.539 63.479-141.539 141.538s63.48 141.538 141.539 141.538c78.054 0 141.538-63.479 141.538-141.538s-63.484-141.538-141.538-141.538z" />
<glyph unicode="&#xe95a;" glyph-name="sites" d="M213.334 832c-70.692 0-128-57.308-128-128v-128h853.332v128c0 70.692-57.306 128-128 128h-597.332zM170.667 704c0 23.564 19.103 42.667 42.667 42.667h85.333c23.564 0 42.667-19.103 42.667-42.667s-19.103-42.667-42.667-42.667h-85.333c-23.564 0-42.667 19.103-42.667 42.667zM938.666 106.667v384h-853.332v-384c0-70.694 57.308-128 128-128h597.332c70.694 0 128 57.306 128 128zM511.999 329.997c0 21.389 17.34 38.729 38.729 38.729h249.557c21.389 0 38.729-17.34 38.729-38.729s-17.34-38.729-38.729-38.729h-249.557c-21.389 0-38.729 17.34-38.729 38.729zM254.478 346.795c-28.369 14.187-61.748-6.443-61.748-38.161v-117.926c0-31.718 33.379-52.348 61.748-38.165l117.928 58.965c31.447 15.723 31.447 60.599 0 76.326l-117.928 58.961zM511.999 174.921c0 21.389 17.34 38.729 38.729 38.729h168.879c21.389 0 38.729-17.34 38.729-38.729s-17.34-38.729-38.729-38.729h-168.879c-21.389 0-38.729 17.34-38.729 38.729z" />
<glyph unicode="&#xe95b;" glyph-name="taxonomy" d="M817.732 740.96c10.001-5.769 17.237-15.345 20.058-26.541l142.242-564.897c5.628-22.353-7.509-45.133-29.675-51.452l-113.758-32.435c-11.102-3.166-23.014-1.694-33.015 4.075s-17.237 15.343-20.058 26.539l-142.246 564.899c-5.628 22.35 7.514 45.13 29.679 51.45l113.754 32.435c11.106 3.166 23.019 1.697 33.020-4.072zM128 746.667c-23.564 0-42.667-19.103-42.667-42.667v-597.333c0-23.565 19.103-42.667 42.667-42.667h128c23.564 0 42.667 19.102 42.667 42.667v597.333c0 23.564-19.103 42.667-42.667 42.667h-128zM426.667 746.667c-23.564 0-42.667-19.103-42.667-42.667v-597.333c0-23.565 19.103-42.667 42.667-42.667h128c23.565 0 42.667 19.102 42.667 42.667v597.333c0 23.564-19.102 42.667-42.667 42.667h-128z" />
<glyph unicode="&#xe95c;" glyph-name="buyers" d="M512-21.333c235.639 0 426.667 191.027 426.667 426.667 0 235.642-191.027 426.667-426.667 426.667-235.642 0-426.667-191.025-426.667-426.667 0-235.639 191.025-426.667 426.667-426.667zM621.525 514.858c0-60.488-49.037-109.524-109.525-109.524s-109.524 49.037-109.524 109.524c0 60.489 49.036 109.524 109.524 109.524s109.525-49.036 109.525-109.524zM265.653 196.673c43.683 92.173 137.571 155.917 246.347 155.917 108.774 0 202.667-63.744 246.349-155.917-59.221-69.841-147.605-114.172-246.349-114.172-98.742 0-187.129 44.331-246.347 114.172z" />
<glyph unicode="&#xe95d;" glyph-name="sort-asc" d="M475.796 825.538c19.994 19.995 52.412 19.995 72.405 0l298.667-298.667c19.998-19.995 19.998-52.413 0-72.406-19.994-19.998-52.412-19.998-72.405 0l-211.264 211.261v-644.392c0-28.275-22.925-51.2-51.2-51.2s-51.2 22.925-51.2 51.2v644.392l-211.263-211.261c-19.995-19.998-52.413-19.998-72.407 0-19.995 19.994-19.995 52.411 0 72.406l298.668 298.667z" />
<glyph unicode="&#xe95e;" glyph-name="sort-desc" horiz-adv-x="1067" d="M497.296-14.868c19.994-19.998 52.412-19.998 72.405 0l298.667 298.667c19.998 19.994 19.998 52.412 0 72.405-19.994 19.998-52.412 19.998-72.405 0l-211.264-211.26v644.391c0 28.277-22.925 51.2-51.2 51.2s-51.2-22.923-51.2-51.2v-644.391l-211.263 211.26c-19.995 19.998-52.413 19.998-72.407 0-19.995-19.994-19.995-52.412 0-72.405l298.668-298.667z" />
<glyph unicode="&#xe95f;" glyph-name="eye" horiz-adv-x="983" d="M255.2 584.506c-62.599-52.245-106.305-113.529-128.369-148.464-3.037-4.809-4.282-6.828-5.099-8.401-0.368-0.709-0.471-0.983-0.541-1.253-0.008-0.066-0.019-0.16-0.031-0.283-0.043-0.455-0.075-1.073-0.075-1.778 0-0.709 0.033-1.327 0.075-1.782 0.012-0.123 0.023-0.217 0.031-0.279 0.069-0.27 0.172-0.549 0.541-1.257 0.816-1.569 2.062-3.588 5.099-8.397 22.064-34.939 65.77-96.219 128.369-148.468 62.521-52.179 141.915-93.77 236.336-93.77 94.417 0 173.81 41.591 236.331 93.77 62.599 52.249 106.308 113.529 128.369 148.468 3.039 4.809 4.284 6.828 5.1 8.397 0.369 0.709 0.471 0.983 0.541 1.253 0.008 0.066 0.020 0.16 0.033 0.283 0.041 0.455 0.074 1.073 0.074 1.782 0 0.705-0.033 1.323-0.074 1.778-0.012 0.123-0.025 0.217-0.033 0.283-0.070 0.27-0.172 0.545-0.541 1.253-0.815 1.573-2.060 3.592-5.1 8.401-22.061 34.935-65.769 96.219-128.369 148.464-62.521 52.181-141.914 93.772-236.331 93.772-94.421 0-173.815-41.591-236.336-93.772zM213.207 634.82c69.883 58.325 163.646 108.994 278.329 108.994 114.68 0 208.441-50.668 278.327-108.994 69.804-58.261 117.752-125.731 141.783-163.786 0.303-0.479 0.61-0.963 0.922-1.45 4.85-7.647 10.404-16.409 13.242-28.787 2.277-9.933 2.277-23.007 0-32.944-2.839-12.378-8.393-21.139-13.242-28.783-0.311-0.492-0.618-0.975-0.922-1.454-24.031-38.052-71.979-105.525-141.783-163.787-69.886-58.323-163.647-108.99-278.327-108.99-114.683 0-208.446 50.668-278.329 108.99-69.806 58.262-117.753 125.735-141.786 163.787-0.303 0.479-0.61 0.963-0.92 1.454-4.85 7.643-10.406 16.404-13.243 28.783-2.277 9.937-2.277 23.011 0 32.944 2.837 12.378 8.394 21.139 13.243 28.787 0.31 0.487 0.616 0.971 0.92 1.45 24.033 38.055 71.98 105.525 141.786 163.786zM491.536 514.438c-49.77 0-90.114-40.344-90.114-90.111 0-49.77 40.344-90.112 90.114-90.112 49.766 0 90.112 40.342 90.112 90.112 0 49.766-40.346 90.111-90.112 90.111zM335.887 424.327c0 85.961 69.686 155.647 155.65 155.647 85.959 0 155.648-69.686 155.648-155.647 0-85.963-69.689-155.648-155.648-155.648-85.964 0-155.65 69.685-155.65 155.648z" />
<glyph unicode="&#xe960;" glyph-name="download" d="M204.798 192.001c0-51.84 42.025-93.867 93.867-93.867h426.669c51.84 0 93.867 42.027 93.867 93.867v42.667c0 18.85 15.279 34.133 34.133 34.133 18.85 0 34.129-15.283 34.129-34.133v-42.667c0-89.545-72.589-162.133-162.129-162.133h-426.669c-89.544 0-162.133 72.589-162.133 162.133v42.667c0 18.85 15.282 34.133 34.133 34.133s34.133-15.283 34.133-34.133v-42.667zM317.196 429.471c13.329 13.329 34.942 13.329 48.272 0l112.399-112.397-0.004 429.594c0 18.851 15.283 34.133 34.133 34.133 18.854 0 34.133-15.282 34.133-34.133l0.004-429.594 112.397 112.397c13.329 13.329 34.94 13.329 48.269 0 13.333-13.329 13.333-34.944 0-48.273l-170.667-170.667c-13.329-13.329-34.94-13.329-48.269 0l-170.668 170.667c-13.33 13.329-13.33 34.944 0 48.273z" />
<glyph unicode="&#xe961;" glyph-name="bulk-create" d="M732.245 752.988c-26.748 2.185-60.958 2.212-109.312 2.212h-302.935c-18.851 0-34.133 15.282-34.133 34.133s15.282 34.133 34.133 34.133h304.429c46.524 0 83.524 0 113.378-2.439 30.571-2.497 56.636-7.722 80.503-19.883 38.537-19.635 69.867-50.965 89.502-89.501 12.16-23.868 17.387-49.934 19.883-80.504 2.441-29.852 2.441-66.853 2.441-113.376v-304.43c0-18.85-15.283-34.133-34.133-34.133-18.854 0-34.133 15.283-34.133 34.133v302.933c0 48.354-0.030 82.567-2.214 109.314-2.15 26.348-6.229 42.431-12.668 55.071-13.090 25.69-33.98 46.577-59.669 59.667-12.638 6.44-28.723 10.516-55.070 12.669zM263.16 674.134h348.343c22.729 0 41.826 0.001 57.455-1.276 16.341-1.335 31.868-4.234 46.609-11.745 22.481-11.454 40.755-29.73 52.211-52.209 7.509-14.741 10.411-30.27 11.742-46.61 1.28-15.629 1.28-34.728 1.28-57.456v-348.339c0-22.729 0-41.83-1.28-57.459-1.331-16.337-4.233-31.868-11.742-46.609-11.456-22.477-29.73-40.755-52.211-52.207-14.741-7.514-30.268-10.411-46.609-11.746-15.629-1.276-34.726-1.276-57.451-1.276h-348.35c-22.727 0-41.824 0-57.452 1.276-16.34 1.335-31.87 4.233-46.61 11.746-22.479 11.452-40.755 29.73-52.209 52.207-7.511 14.741-10.41 30.272-11.745 46.609-1.277 15.629-1.277 34.731-1.276 57.459v348.34c0 22.729-0.001 41.827 1.276 57.456 1.335 16.34 4.234 31.869 11.745 46.61 11.454 22.479 29.73 40.755 52.209 52.209 14.74 7.511 30.27 10.41 46.61 11.745 15.629 1.277 34.727 1.277 57.455 1.276zM211.264 604.818c-12.119-0.99-17.664-2.741-21.177-4.531-9.634-4.909-17.466-12.742-22.375-22.375-1.79-3.513-3.541-9.059-4.531-21.177-1.023-12.517-1.049-28.809-1.049-53.267v-345.6c0-24.461 0.026-40.751 1.049-53.269 0.99-12.117 2.741-17.664 4.531-21.175 4.909-9.634 12.742-17.468 22.375-22.374 3.513-1.792 9.059-3.541 21.177-4.531 12.517-1.024 28.809-1.050 53.267-1.050h345.602c24.457 0 40.747 0.026 53.265 1.050 12.117 0.99 17.664 2.739 21.175 4.531 9.634 4.907 17.468 12.74 22.379 22.374 1.788 3.511 3.541 9.058 4.531 21.175 1.020 12.518 1.050 28.809 1.050 53.269v345.6c0 24.459-0.030 40.75-1.050 53.267-0.99 12.119-2.743 17.664-4.531 21.177-4.911 9.634-12.745 17.466-22.379 22.375-3.511 1.79-9.058 3.541-21.175 4.531-12.518 1.023-28.809 1.049-53.265 1.049h-345.602c-24.459 0-40.75-0.026-53.267-1.049zM433.813 494.759c18.85 0 34.133-15.283 34.133-34.133v-95.949h95.945c18.85 0 34.133-15.279 34.133-34.133 0-18.85-15.283-34.133-34.133-34.133h-95.945v-95.945c0-18.85-15.283-34.133-34.133-34.133-18.852 0-34.135 15.283-34.135 34.133v95.945h-95.946c-18.851 0-34.133 15.283-34.133 34.133 0 18.854 15.282 34.133 34.133 34.133h95.946v95.949c0 18.85 15.282 34.133 34.135 34.133z" />
<glyph unicode="&#xe962;" glyph-name="refresh-alt" d="M512 755.2c-96.668 0-184.123-39.158-247.481-102.56-33.338-33.361-71.128-78.654-101.008-116.243-3.156-3.971-6.216-7.845-9.164-11.598h186.984c18.851 0 34.133-15.282 34.133-34.133s-15.282-34.133-34.133-34.133h-256c-18.851 0-34.133 15.283-34.133 34.133v256c0 18.851 15.282 34.133 34.133 34.133s34.133-15.282 34.133-34.133v-156.045c28.819 35.808 64.238 77.723 96.766 110.274 75.638 75.69 180.26 122.571 295.769 122.571 230.925 0 418.129-187.205 418.129-418.133s-187.204-418.133-418.129-418.133c-190.679 0-351.463 127.603-401.789 302.003-5.227 18.112 5.219 37.030 23.332 42.257s37.032-5.218 42.259-23.33c42.12-145.967 176.742-252.663 336.198-252.663 193.225 0 349.867 156.642 349.867 349.867s-156.642 349.866-349.867 349.866z" />
</font>
</defs>
</svg>
